TAIFUN With Song
Навигация
Вернуться   TAIFUN With Song > Music (обменник) > Другие направления музыки > R&B
Расширенный поиск
R&B Ссылки на музыку в этом стиле

А знаете ли Вы, что...
За какие заслуги музыкантов принимают в «Клуб 27»?
«Среди известных рок- и блюз-музыкантов весьма значительна доля тех, кто умер в 27 лет. Именно в этом возрасте почему-то возникает статистическая погрешность, выделяющаяся из нормального распределения. Для таких музыкантов даже приняли название «Клуб 27». В него включают Джима Моррисона, Джими Хендрикса, Дженис Джоплин, Курта Кобейна и Брайана Джонса. В 27 лет умер также легендарный советский рок-музыкант и поэт Александр Башлачёв.»
 
Опции темы

  #1
Старый 05.08.2017, 08:44
sergych
Координатор
Досье
 
Аватар для sergych
Релиз Mariah Carey - The Emancipation Of Mimi


2005 - Mariah Carey - The Emancipation Of Mimi




Исполнитель/Artist: Mariah Carey
Альбом/Album: The Emancipation Of Mimi
Год/Year: 2005
Жанр/Genre: R&B, soul, hip hop, pop
Страна/Country: Великобритания
Рекорд-лейбл/Record label: Island Def Jam
Номер в каталоге/Catalogue #: 9881270
Формат/Format: Free Lossless Audio Codec (*.flac)
Качество/Quality: Lossless
Тип рипа/RIP Type: image+.cue
Продолжительность/Length: 00:53:35
Источник/Source: Собственный рип
Размер/Size: 450.1 MB

Сканы в комплекте

Треклист

01. It's Like That [0:03:24.03]
02. We Belong Together [0:03:21.30]
03. Shake It Off [0:03:52.63]
04. Mine Again [0:04:01.52]
05. Say Somethin' [0:03:44.33]
06. Stay The Night [0:03:57.20]
07. Get Your Number [0:03:15.42]
08. One & Only [0:03:14.53]
09. Circles [0:03:30.57]
10. Your Girl [0:02:46.25]
11. I Wish You Knew [0:03:34.68]
12. To The Floor [0:03:27.47]
13. Joy Ride [0:04:03.60]
14. Fly Like A Bird [0:03:53.00]

Bonus track:
15. Sprung [0:03:26.45]
[свернуть]

youtube.com

[свернуть]

Исполнители/Performers

Mariah Carey – producer (tracks 1–4, 6–11, 13–14), executive producer, vocals (all tracks), background vocals (tracks 1–3, 6, 8–11, 13–14)
David Styles, Jason Phillips – vocals
Calvin Broadus – vocals (track 5)
Carl Mitchell – vocals (track 8)
Cornell Haynes – vocals (track 12)
Jermaine Dupri – producer (1–3, 7), audio mixing (3, 7), vocals (1, 3, 7)
Isaac Freeman – additional rap vocals (track 1)
Maryann Tatum – background vocals (tracks 1, 9–11, 14)
Sherry Tatum – background vocals (tracks 1, 9, 11, 14)
Trey Lorenz – background vocals (tracks 7, 11, 13–14)
Courtney Bradley – background vocals (track 14)
Rev. Dr. Clarence Keaton – talking voice (track 14)
Rick Brunermer – flute (tracks 4, 9, 11), tenor saxophone (9, 11)
Jeff Dieterie – trombone (tracks 4, 9, 11), bass trombone (9, 11)
Darryl Dixon – alto saxophone (tracks 4, 9, 11)
Chops Horns – horn (tracks 4, 9, 11)
Charlie Drayton – drums (tracks 4, 9, 11)
Randy Jackson – bass (tracks 4, 9, 11)
Jeffrey Lee Johnson – guitar (tracks 4, 9, 11)
Loris Holland – additional keyboards (tracks 9, 11, 14)
James Poyser – producer, keyboard (track 4)
Joe Romano – flugelhorn, trumpet (tracks 4, 9, 11)
[свернуть]

EAC лог

Exact Audio Copy V1.3 from 2. September 2016

EAC extraction logfile from 1. August 2017, 22:43

Mariah Carey / The Emancipation Of Mimi

Used drive : PLEXTOR DVDR PX-716A Adapter: 1 ID: 0

Read mode : Secure
Utilize accurate stream : Yes
Defeat audio cache : Yes
Make use of C2 pointers : No

Read offset correction : 30
Overread into Lead-In and Lead-Out : No
Fill up missing offset samples with silence : Yes
Delete leading and trailing silent blocks : No
Null samples used in CRC calculations : Yes
Used interface : Installed external ASPI interface

Used output format : User Defined Encoder
Selected bitrate : 1024 kBit/s
Quality : High
Add ID3 tag : No
Command line compressor : C:\Program Files (x86)\Exact Audio Copy\Flac\flac.exe
Additional command line options : -6 -V -T "ARTIST=%artist%" -T "TITLE=%title%" -T "ALBUM=%albumtitle%" -T "DATE=%year%" -T "TRACKNUMBER=%tracknr%" -T "GENRE=%genre%" -T "COMMENT=%comment%" -T "BAND=%albuminterpret%" -T "ALBUMARTIST=%albuminterpret%" -T "COMPOSER=%composer%" %haslyrics%--tag-from-file=LYRICS="%lyricsfile%"%haslyrics% -T "DISCNUMBER=%cdnumber%" -T "TOTALDISCS=%totalcds%" -T "TOTALTRACKS=%numtracks%" %hascover%--picture="%coverfile%"%hascover% %source% -o %dest%


TOC of the extracted CD

Track | Start | Length | Start sector | End sector
---------------------------------------------------------
1 | 0:00.00 | 3:24.03 | 0 | 15302
2 | 3:24.03 | 3:21.30 | 15303 | 30407
3 | 6:45.33 | 3:52.63 | 30408 | 47870
4 | 10:38.21 | 4:01.52 | 47871 | 65997
5 | 14:39.73 | 3:44.33 | 65998 | 82830
6 | 18:24.31 | 3:57.20 | 82831 | 100625
7 | 22:21.51 | 3:15.42 | 100626 | 115292
8 | 25:37.18 | 3:14.53 | 115293 | 129895
9 | 28:51.71 | 3:30.57 | 129896 | 145702
10 | 32:22.53 | 2:46.25 | 145703 | 158177
11 | 35:09.03 | 3:34.68 | 158178 | 174295
12 | 38:43.71 | 3:27.47 | 174296 | 189867
13 | 42:11.43 | 4:03.60 | 189868 | 208152
14 | 46:15.28 | 3:53.00 | 208153 | 225627
15 | 50:08.28 | 3:26.45 | 225628 | 241122


Range status and errors

Selected range

Filename C:\mm\Mariah Carey\2005 - The Emancipation Of Mimi [9881270]\Mariah Carey - The Emancipation Of Mimi.wav

Peak level 100.0 %
Extraction speed 12.6 X
Range quality 100.0 %
Test CRC 751CB552
Copy CRC 751CB552
Copy OK

No errors occurred

End of status report

---- CUETools DB Plugin V2.1.6

[CTDB TOCID: LawuS56rt8SjJj44k6S4Zkjad3I-] found
Submit result: LawuS56rt8SjJj44k6S4Zkjad3I- has been confirmed
Track | CTDB Status
1 | (17/17) Accurately ripped
2 | (17/17) Accurately ripped
3 | (16/17) Accurately ripped
4 | (17/17) Accurately ripped
5 | (17/17) Accurately ripped
6 | (17/17) Accurately ripped
7 | (17/17) Accurately ripped
8 | (17/17) Accurately ripped
9 | (17/17) Accurately ripped
10 | (16/17) Accurately ripped
11 | (16/17) Accurately ripped
12 | (16/17) Accurately ripped
13 | (17/17) Accurately ripped
14 | (17/17) Accurately ripped
15 | (17/17) Accurately ripped
[свернуть]

Файл CUE

REM GENRE Popular
REM DATE 2005
REM DISCID AE0C8E0F
REM COMMENT "ExactAudioCopy v1.3"
PERFORMER "Mariah Carey"
TITLE "The Emancipation Of Mimi"
REM COMPOSER ""
FILE "Mariah Carey - The Emancipation Of Mimi.flac" WAVE
TRACK 01 AUDIO
TITLE "It's Like That"
PERFORMER "Mariah Carey"
REM COMPOSER ""
INDEX 01 00:00:00
TRACK 02 AUDIO
TITLE "We Belong Together"
PERFORMER "Mariah Carey"
REM COMPOSER ""
INDEX 00 03:24:02
INDEX 01 03:24:03
TRACK 03 AUDIO
TITLE "Shake It Off"
PERFORMER "Mariah Carey"
REM COMPOSER ""
INDEX 01 06:45:33
TRACK 04 AUDIO
TITLE "Mine Again"
PERFORMER "Mariah Carey"
REM COMPOSER ""
INDEX 00 10:38:20
INDEX 01 10:38:21
TRACK 05 AUDIO
TITLE "Say Somethin'"
PERFORMER "Mariah Carey"
REM COMPOSER ""
INDEX 00 14:39:72
INDEX 01 14:39:73
TRACK 06 AUDIO
TITLE "Stay The Night"
PERFORMER "Mariah Carey"
REM COMPOSER ""
INDEX 00 18:24:30
INDEX 01 18:24:31
TRACK 07 AUDIO
TITLE "Get Your Number"
PERFORMER "Mariah Carey"
REM COMPOSER ""
INDEX 00 22:21:50
INDEX 01 22:21:51
TRACK 08 AUDIO
TITLE "One & Only"
PERFORMER "Mariah Carey"
REM COMPOSER ""
INDEX 00 25:37:17
INDEX 01 25:37:18
TRACK 09 AUDIO
TITLE "Circles"
PERFORMER "Mariah Carey"
REM COMPOSER ""
INDEX 00 28:51:70
INDEX 01 28:51:71
TRACK 10 AUDIO
TITLE "Your Girl"
PERFORMER "Mariah Carey"
REM COMPOSER ""
INDEX 00 32:22:52
INDEX 01 32:22:53
TRACK 11 AUDIO
TITLE "I Wish You Knew"
PERFORMER "Mariah Carey"
REM COMPOSER ""
INDEX 00 35:09:02
INDEX 01 35:09:03
TRACK 12 AUDIO
TITLE "To The Floor"
PERFORMER "Mariah Carey"
REM COMPOSER ""
INDEX 00 38:43:70
INDEX 01 38:43:71
TRACK 13 AUDIO
TITLE "Joy Ride"
PERFORMER "Mariah Carey"
REM COMPOSER ""
INDEX 00 42:11:42
INDEX 01 42:11:43
TRACK 14 AUDIO
TITLE "Fly Like A Bird"
PERFORMER "Mariah Carey"
REM COMPOSER ""
INDEX 00 46:15:27
INDEX 01 46:15:28
TRACK 15 AUDIO
TITLE "Sprung"
PERFORMER "Mariah Carey"
REM COMPOSER ""
INDEX 00 50:08:27
INDEX 01 50:08:28
[свернуть]

Лог проверки качества

AUDIOCHECKER v2.0 beta (build 457) - by Dester -
~~~~~~~~~~~~~~~~~~~~~~~~~~~~~~~~~~
-=== НЕ РЕДАКТИРУЙТЕ ЭТОТ ФАЙЛ! ===-

Путь: ...\2005 - The Emancipation Of Mimi [9881270]

1 -=- Mariah Carey - The Emancipation Of Mimi.flac -=- CDDA (99%)

35532804
[свернуть]

Спектр частот

[свернуть]

Скачать Mariah Carey - The Emancipation Of Mimi



password: sergych
[свернуть]

Контрольная сумма (хеш-сумма) архива

MD5: 0b79980455607958ae6169742cd4cf0d
[свернуть]
My opinion of release: 10/10
__________________
TAIFUN.Wings of Soul

Вверх
4 пользователя(ей) сказали cпасибо:
Показать список поблагодаривших
Похожие темы
Тема Автор Раздел Ответов Последнее сообщение
Сборник Mariah Carey - #1's sergych R&B 1 14.10.2017 23:35
Live Mariah Carey - Without You sergych R&B 4 25.07.2017 22:07
Альбом Mariah Carey - Me. I Am Mariah... The Elusive Chanteuse sergych R&B 1 08.05.2017 20:35
Альбом Mariah Carey - Mariah Carey sergych R&B 0 17.09.2015 20:37
Альбом Mariah Carey - E=MC2 LUСIAN R&B 0 20.04.2008 00:25


Метки
2005 , hip hop , mariah carey , pop , r&b , soul , the emancipation of mimi

Опции темы

Ваши права в разделе
Вы не можете создавать новые темы
Вы не можете отвечать в темах
Вы не можете прикреплять вложения
Вы не можете редактировать свои сообщения

Быстрый переход



Текущее время: 01:31. Часовой пояс GMT +3.
Powered by vBulletin® Version 3.8.10
Copyright ©2000 - 2017, vBulletin Solutions, Inc. Перевод: zCarot
© 2008 - 2017 Taifun With Song
Яндекс.Метрика