TAIFUN With Song
А знаете ли Вы, что...
Какая песня, часто приписываемая Элвису Пресли, никогда им не записывалась?
«Песню «Only You» часто приписывают Элвису Пресли, хотя на самом деле наиболее известными её исполнителями является группа «The Platters». Элвис пел «Only You» на некоторых концертах, но не существует ни одной аудио- или видеозаписи этой композиции в его исполнении.»
 
Опции темы

  #1
Старый 03.08.2017, 23:01
sergych
Координатор
Досье
 
Аватар для sergych
Релиз Andrea Bocelli - Amore


2006 - Andrea Bocelli - Amore




Исполнитель/Artist: Andrea Bocelli
Альбом/Album: Amore
Год/Year: 2006
Жанр/Genre: Pop, Operatic pop
Страна/Country: Великобритания
Рекорд-лейбл/Record label: Universal Music
Номер в каталоге/Catalogue #: 987 602-1
Формат/Format: Free Lossless Audio Codec (*.flac)
Качество/Quality: Lossless
Тип рипа/RIP Type: image+.cue
Продолжительность/Length: 01:04:59
Источник/Source: Собственный рип
Размер/Size: 504.9 MB

Сканы в комплекте

Треклист

01. Amapola [0:03:43.15]
02. Besame Mucho [0:04:01.03]
03. Les Feuilles Mortes (Autumn Leaves) [0:04:49.30]
04. Mi Manchi (feat. Kenny G) [0:03:34.70]
05. Somos Novios (feat. Christina Aguilera) [0:04:20.69]
06. Canzoni Stonate (feat. Stevie Wonder) [0:05:18.28]
07. Solamente Una Vez [0:03:29.16]
08. Jurame (feat. Mario Reyes) [0:03:20.70]
09. Pero Te Extraño [0:04:07.49]
10. Momentos [0:03:55.57]
11. L'Appuntamento (sentado A'Beira Do Caminho) [0:04:08.36]
12. Cuando Me Enamoro (Quando M'Innamoro) [0:03:56.72]
13. Estate (feat. Chris Botti) [0:03:42.39]
14. Can't Help Falling In Love (Live) [0:03:26.57]
15. Because We Believe [0:04:40.46]
16. Somos Novios [0:04:21.62]
[свернуть]

youtube.com

[свернуть]

Исполнители/Performers

Andrea Bocelli: Vocals
Veronica Berti: Vocals on "Les Feuilles Mortes (Autumn Leaves)"
Kenny G: Saxophone on "Mi Manchi"
Christina Aguilera: Vocals on "Somos Novios (It's Impossible)"
Marco Borsato: Vocals on "Because We Believe"
Mario Reyes: Flamenco guitar on "Jurame"
Stevie Wonder: Harmonica and additional vocals on "Canzoni Stonate"
David Foster and Randy Waldman: Acoustic piano and keyboards
Nathan East: Bass
Vinnie Colaiuta: Drums
Dean Parks, Ramon Stagnaro, Michael Thompson, and Michael Landau: Guitars
Paulinho Da Costa and Rafael Padilla: Percussion
Dan Higgins: Flute
[свернуть]

EAC лог

Exact Audio Copy V1.3 from 2. September 2016

EAC extraction logfile from 1. August 2017, 9:01

Andrea Bocelli / Amore

Used drive : PLEXTOR DVDR PX-716A Adapter: 1 ID: 0

Read mode : Secure
Utilize accurate stream : Yes
Defeat audio cache : Yes
Make use of C2 pointers : No

Read offset correction : 30
Overread into Lead-In and Lead-Out : No
Fill up missing offset samples with silence : Yes
Delete leading and trailing silent blocks : No
Null samples used in CRC calculations : Yes
Used interface : Installed external ASPI interface

Used output format : User Defined Encoder
Selected bitrate : 1024 kBit/s
Quality : High
Add ID3 tag : No
Command line compressor : C:\Program Files (x86)\Exact Audio Copy\Flac\flac.exe
Additional command line options : -6 -V -T "ARTIST=%artist%" -T "TITLE=%title%" -T "ALBUM=%albumtitle%" -T "DATE=%year%" -T "TRACKNUMBER=%tracknr%" -T "GENRE=%genre%" -T "COMMENT=%comment%" -T "BAND=%albuminterpret%" -T "ALBUMARTIST=%albuminterpret%" -T "COMPOSER=%composer%" %haslyrics%--tag-from-file=LYRICS="%lyricsfile%"%haslyrics% -T "DISCNUMBER=%cdnumber%" -T "TOTALDISCS=%totalcds%" -T "TOTALTRACKS=%numtracks%" %hascover%--picture="%coverfile%"%hascover% %source% -o %dest%


TOC of the extracted CD

Track | Start | Length | Start sector | End sector
---------------------------------------------------------
1 | 0:00.00 | 3:43.15 | 0 | 16739
2 | 3:43.15 | 4:01.03 | 16740 | 34817
3 | 7:44.18 | 4:49.30 | 34818 | 56522
4 | 12:33.48 | 3:34.70 | 56523 | 72642
5 | 16:08.43 | 4:20.69 | 72643 | 92211
6 | 20:29.37 | 5:18.28 | 92212 | 116089
7 | 25:47.65 | 3:29.16 | 116090 | 131780
8 | 29:17.06 | 3:20.70 | 131781 | 146850
9 | 32:38.01 | 4:07.49 | 146851 | 165424
10 | 36:45.50 | 3:55.57 | 165425 | 183106
11 | 40:41.32 | 4:08.36 | 183107 | 201742
12 | 44:49.68 | 3:56.72 | 201743 | 219514
13 | 48:46.65 | 3:42.39 | 219515 | 236203
14 | 52:29.29 | 3:26.57 | 236204 | 251710
15 | 55:56.11 | 4:40.46 | 251711 | 272756
16 | 60:36.57 | 4:21.62 | 272757 | 292393


Range status and errors

Selected range

Filename C:\mm\Andrea Bocelli\2006 - Amore [987 602-1]\Andrea Bocelli - Amore.wav

Peak level 99.9 %
Extraction speed 3.8 X
Range quality 100.0 %
Test CRC 7653B509
Copy CRC 7653B509
Copy OK

No errors occurred

End of status report

---- CUETools DB Plugin V2.1.6

[CTDB TOCID: 7eX75IOLgOswLDgv.LSLI.guvOw-] found
Submit result: 7eX75IOLgOswLDgv.LSLI.guvOw- has been confirmed
Track | CTDB Status
1 | (19/20) Accurately ripped
2 | (20/20) Accurately ripped
3 | (20/20) Accurately ripped
4 | (20/20) Accurately ripped
5 | (20/20) Accurately ripped
6 | (20/20) Accurately ripped
7 | (20/20) Accurately ripped
8 | (20/20) Accurately ripped
9 | (20/20) Accurately ripped
10 | (20/20) Accurately ripped
11 | (20/20) Accurately ripped
12 | (20/20) Accurately ripped
13 | (20/20) Accurately ripped
14 | (20/20) Accurately ripped
15 | (20/20) Accurately ripped
16 | (19/20) Accurately ripped
[свернуть]

Файл CUE

REM GENRE Pop
REM DATE 2006
REM DISCID EC0F3A10
REM COMMENT "ExactAudioCopy v1.3"
PERFORMER "Andrea Bocelli"
TITLE "Amore"
REM COMPOSER ""
FILE "Andrea Bocelli - Amore.flac" WAVE
TRACK 01 AUDIO
TITLE "Amapola"
PERFORMER "Andrea Bocelli"
REM COMPOSER ""
INDEX 01 00:00:00
TRACK 02 AUDIO
TITLE "Besame Mucho"
PERFORMER "Andrea Bocelli"
REM COMPOSER ""
INDEX 01 03:43:15
TRACK 03 AUDIO
TITLE "Les Feuilles Mortes (Autumn Leaves)"
PERFORMER "Andrea Bocelli"
REM COMPOSER ""
INDEX 01 07:44:18
TRACK 04 AUDIO
TITLE "Mi Manchi (feat. Kenny G)"
PERFORMER "Andrea Bocelli"
REM COMPOSER ""
INDEX 01 12:33:48
TRACK 05 AUDIO
TITLE "Somos Novios (feat. Christina Aguilera)"
PERFORMER "Andrea Bocelli"
REM COMPOSER ""
INDEX 01 16:08:43
TRACK 06 AUDIO
TITLE "Canzoni Stonate (feat. Stevie Wonder)"
PERFORMER "Andrea Bocelli"
REM COMPOSER ""
INDEX 01 20:29:37
TRACK 07 AUDIO
TITLE "Solamente Una Vez"
PERFORMER "Andrea Bocelli"
REM COMPOSER ""
INDEX 00 25:47:10
INDEX 01 25:47:65
TRACK 08 AUDIO
TITLE "Jurame (feat. Mario Reyes)"
PERFORMER "Andrea Bocelli"
REM COMPOSER ""
INDEX 01 29:17:06
TRACK 09 AUDIO
TITLE "Pero Te Extrano"
PERFORMER "Andrea Bocelli"
REM COMPOSER ""
INDEX 01 32:38:01
TRACK 10 AUDIO
TITLE "Momentos"
PERFORMER "Andrea Bocelli"
REM COMPOSER ""
INDEX 00 36:44:74
INDEX 01 36:45:50
TRACK 11 AUDIO
TITLE "L'Appuntamento (sentado A'Beira Do Caminho)"
PERFORMER "Andrea Bocelli"
REM COMPOSER ""
INDEX 00 40:39:72
INDEX 01 40:41:32
TRACK 12 AUDIO
TITLE "Cuando Me Enamoro (Quando M'Innamoro)"
PERFORMER "Andrea Bocelli"
REM COMPOSER ""
INDEX 00 44:48:54
INDEX 01 44:49:68
TRACK 13 AUDIO
TITLE "Estate (feat. Chris Botti)"
PERFORMER "Andrea Bocelli"
REM COMPOSER ""
INDEX 00 48:45:35
INDEX 01 48:46:65
TRACK 14 AUDIO
TITLE "Can't Help Falling In Love (Live)"
PERFORMER "Andrea Bocelli"
REM COMPOSER ""
INDEX 00 52:28:60
INDEX 01 52:29:29
TRACK 15 AUDIO
TITLE "Because We Believe"
PERFORMER "Andrea Bocelli"
REM COMPOSER ""
INDEX 00 55:55:04
INDEX 01 55:56:11
TRACK 16 AUDIO
TITLE "Somos Novios"
PERFORMER "Andrea Bocelli"
REM COMPOSER ""
INDEX 00 60:35:57
INDEX 01 60:36:57
[свернуть]

Лог проверки качества

AUDIOCHECKER v2.0 beta (build 457) - by Dester -
~~~~~~~~~~~~~~~~~~~~~~~~~~~~~~~~~~
-=== НЕ РЕДАКТИРУЙТЕ ЭТОТ ФАЙЛ! ===-

Путь: ...\2006 - Amore [987 602-1]

1 -=- Andrea Bocelli - Amore.flac -=- CDDA (100%)

263997284
[свернуть]

Спектр частот

[свернуть]

Скачать Andrea Bocelli - Amore



password: sergych
[свернуть]

Контрольная сумма (хеш-сумма) архива

MD5: 38042cf0c81d2d3a68d6a5089ee6a316
[свернуть]
My opinion of release: 10/10
__________________
TAIFUN.Wings of Soul

Вверх
2 пользователя(ей) сказали cпасибо:
johnsilver (04.08.2017), swint68 (04.08.2017)
Похожие темы
Тема Автор Раздел Ответов Последнее сообщение
Альбом Andrea Bocelli - Passione sergych Зарубежная Поп-Музыка 0 13.04.2016 22:21
Альбом Andrea Bocelli - Incanto sergych Classical 0 04.08.2014 21:03
Сборник Andrea Bocelli - The Best of Andrea Bocelli: Vivere sergych Зарубежная Поп-Музыка 0 31.07.2014 16:53
Альбом Andrea Bocelli - Andrea sergych Зарубежная Поп-Музыка 0 30.07.2014 20:32
Сборник Andrea Bocelli - Victoria's Secret Presents. Mistero Dell' Amore sergych Зарубежная Поп-Музыка 0 08.06.2014 20:30


Метки
2006 , amore , andrea bocelli , operatic pop , pop

Опции темы

Ваши права в разделе
Вы не можете создавать новые темы
Вы не можете отвечать в темах
Вы не можете прикреплять вложения
Вы не можете редактировать свои сообщения

Быстрый переход



Текущее время: 01:01. Часовой пояс GMT +3.
Powered by vBulletin® Version 3.8.7
Copyright ©2000 - 2017, vBulletin Solutions, Inc. Перевод: zCarot
© 2008 - 2017 Taifun With Song
Яндекс.Метрика