TAIFUN With Song
Jazz и Blues Гибкая ритмика, импровизационное начало, гармонии и мелодии - все это Jazz. Blues - жизнеутверждающая музыка, рожденная из душевной боли

А знаете ли Вы, что...
Какой русский музыкальный инструмент мы называем цыганским?
«Семиструнную гитару во всём мире называют русской гитарой, а у нас также распространено название цыганская гитара.»
 
Опции темы

  #1
Старый 30.07.2017, 08:26
sergych
Координатор
Досье
 
Аватар для sergych
Релиз Warren Hill - La Dolce Vita


2008 - Warren Hill - La Dolce Vita




Исполнитель/Artist: Warren Hill
Альбом/Album: La Dolce Vita
Год/Year: 2008
Жанр/Genre: Smooth Jazz, Contemporary Jazz, Funk
Страна/Country: Соединённые Штаты
Рекорд-лейбл/Record label: Koch Records
Номер в каталоге/Catalogue #: KOC-CD-4555
Формат/Format: Free Lossless Audio Codec (*.flac)
Качество/Quality: Lossless
Тип рипа/RIP Type: image+.cue
Продолжительность/Length: 00:52:36
Источник/Source: Собственный рип
Размер/Size: 399.5 MB

Сканы в комплекте

Треклист

01. Mojo [0:04:15.74]
02. La Dolce Vita [0:05:26.53]
03. Sunshine [0:04:15.64]
04. Daydreamer [0:05:17.16]
05. Gimme Some [0:04:24.13]
06. The Jive Samba [0:05:08.12]
07. Skinny Dippin' [0:04:35.43]
08. We'll Survive [0:05:16.02]
09. Warm Rain [0:05:27.15]
10. Hill Be Jammin' [0:04:23.53]
11. Light My Fire [0:04:05.38]
[свернуть]

youtube.com

[свернуть]

EAC лог

Exact Audio Copy V1.3 from 2. September 2016

EAC extraction logfile from 29. July 2017, 21:54

Warren Hill / La Dolce Vita

Used drive : PLEXTOR DVDR PX-716A Adapter: 1 ID: 0

Read mode : Secure
Utilize accurate stream : Yes
Defeat audio cache : Yes
Make use of C2 pointers : No

Read offset correction : 30
Overread into Lead-In and Lead-Out : No
Fill up missing offset samples with silence : Yes
Delete leading and trailing silent blocks : No
Null samples used in CRC calculations : Yes
Used interface : Installed external ASPI interface

Used output format : User Defined Encoder
Selected bitrate : 1024 kBit/s
Quality : High
Add ID3 tag : No
Command line compressor : C:\Program Files (x86)\Exact Audio Copy\Flac\flac.exe
Additional command line options : -6 -V -T "ARTIST=%artist%" -T "TITLE=%title%" -T "ALBUM=%albumtitle%" -T "DATE=%year%" -T "TRACKNUMBER=%tracknr%" -T "GENRE=%genre%" -T "COMMENT=%comment%" -T "BAND=%albuminterpret%" -T "ALBUMARTIST=%albuminterpret%" -T "COMPOSER=%composer%" %haslyrics%--tag-from-file=LYRICS="%lyricsfile%"%haslyrics% -T "DISCNUMBER=%cdnumber%" -T "TOTALDISCS=%totalcds%" -T "TOTALTRACKS=%numtracks%" %hascover%--picture="%coverfile%"%hascover% %source% -o %dest%


TOC of the extracted CD

Track | Start | Length | Start sector | End sector
---------------------------------------------------------
1 | 0:00.00 | 4:15.74 | 0 | 19198
2 | 4:15.74 | 5:26.53 | 19199 | 43701
3 | 9:42.52 | 4:15.64 | 43702 | 62890
4 | 13:58.41 | 5:17.16 | 62891 | 86681
5 | 19:15.57 | 4:24.13 | 86682 | 106494
6 | 23:39.70 | 5:08.12 | 106495 | 129606
7 | 28:48.07 | 4:35.43 | 129607 | 150274
8 | 33:23.50 | 5:16.02 | 150275 | 173976
9 | 38:39.52 | 5:27.15 | 173977 | 198516
10 | 44:06.67 | 4:23.53 | 198517 | 218294
11 | 48:30.45 | 4:05.38 | 218295 | 236707


Range status and errors

Selected range

Filename C:\mm\Warren Hill\2008 - La Dolce Vita [KOC-CD-4555]\Warren Hill - La Dolce Vita.wav

Peak level 100.0 %
Extraction speed 3.8 X
Range quality 100.0 %
Test CRC 733864D4
Copy CRC 733864D4
Copy OK

No errors occurred

End of status report

---- CUETools DB Plugin V2.1.6

[CTDB TOCID: fc61BUFtmj72dW_1TsZGUFAa18Q-] found
Submit result: fc61BUFtmj72dW_1TsZGUFAa18Q- has been confirmed
Track | CTDB Status
1 | (6/6) Accurately ripped
2 | (6/6) Accurately ripped
3 | (6/6) Accurately ripped
4 | (6/6) Accurately ripped
5 | (6/6) Accurately ripped
6 | (6/6) Accurately ripped
7 | (6/6) Accurately ripped
8 | (6/6) Accurately ripped
9 | (6/6) Accurately ripped
10 | (6/6) Accurately ripped
11 | (6/6) Accurately ripped
[свернуть]

Файл CUE

REM GENRE Jazz
REM DATE 2008
REM DISCID 7F0C540B
REM COMMENT "ExactAudioCopy v1.3"
PERFORMER "Warren Hill"
TITLE "La Dolce Vita"
REM COMPOSER ""
FILE "Warren Hill - La Dolce Vita.flac" WAVE
TRACK 01 AUDIO
TITLE "Mojo"
PERFORMER "Warren Hill"
REM COMPOSER ""
INDEX 01 00:00:00
TRACK 02 AUDIO
TITLE "La Dolce Vita"
PERFORMER "Warren Hill"
REM COMPOSER ""
INDEX 00 04:14:26
INDEX 01 04:15:74
TRACK 03 AUDIO
TITLE "Sunshine"
PERFORMER "Warren Hill"
REM COMPOSER ""
INDEX 00 09:41:06
INDEX 01 09:42:52
TRACK 04 AUDIO
TITLE "Daydreamer"
PERFORMER "Warren Hill"
REM COMPOSER ""
INDEX 00 13:57:20
INDEX 01 13:58:41
TRACK 05 AUDIO
TITLE "Gimme Some"
PERFORMER "Warren Hill"
REM COMPOSER ""
INDEX 00 19:14:21
INDEX 01 19:15:57
TRACK 06 AUDIO
TITLE "The Jive Samba"
PERFORMER "Warren Hill"
REM COMPOSER ""
INDEX 00 23:38:36
INDEX 01 23:39:70
TRACK 07 AUDIO
TITLE "Skinny Dippin'"
PERFORMER "Warren Hill"
REM COMPOSER ""
INDEX 00 28:46:26
INDEX 01 28:48:07
TRACK 08 AUDIO
TITLE "We'll Survive"
PERFORMER "Warren Hill"
REM COMPOSER ""
INDEX 00 33:22:04
INDEX 01 33:23:50
TRACK 09 AUDIO
TITLE "Warm Rain"
PERFORMER "Warren Hill"
REM COMPOSER ""
INDEX 00 38:38:20
INDEX 01 38:39:52
TRACK 10 AUDIO
TITLE "Hill Be Jammin'"
PERFORMER "Warren Hill"
REM COMPOSER ""
INDEX 00 44:05:64
INDEX 01 44:06:67
TRACK 11 AUDIO
TITLE "Light My Fire"
PERFORMER "Warren Hill"
REM COMPOSER ""
INDEX 00 48:29:05
INDEX 01 48:30:45
[свернуть]

Лог проверки качества

AUDIOCHECKER v2.0 beta (build 457) - by Dester -
~~~~~~~~~~~~~~~~~~~~~~~~~~~~~~~~~~
-=== НЕ РЕДАКТИРУЙТЕ ЭТОТ ФАЙЛ! ===-

Путь: ...\2008 - La Dolce Vita [KOC-CD-4555]

1 -=- Warren Hill - La Dolce Vita.flac -=- CDDA (100%)

185130228
[свернуть]

Спектр частот

[свернуть]

Скачать Warren Hill - La Dolce Vita



password: sergych
[свернуть]

Контрольная сумма (хеш-сумма) архива

MD5: b448d15d196c3b9a82b1fe449ca37982
[свернуть]
My opinion of release: 10/10
__________________
TAIFUN.Wings of Soul

Вверх
3 пользователя(ей) сказали cпасибо:
Показать список поблагодаривших
Похожие темы
Тема Автор Раздел Ответов Последнее сообщение
Релиз Becky Warren - War Surplus PUPOKIN Pop Rock 0 23.10.2016 12:29
Альбом Океан Ельзи - Dolce Vita sergych Pop Rock 0 03.10.2014 19:52
Релиз St. Warren - Rock of Eden PUPOKIN Hard Rock 0 24.03.2010 09:53
Сборник Radio Arabella - Dolce Vita PUPOKIN Зарубежная Поп-Музыка 0 15.01.2009 12:26


Метки
2008 , contemporary jazz , funk , la dolce vita , smooth jazz , warren hill

Опции темы

Ваши права в разделе
Вы не можете создавать новые темы
Вы не можете отвечать в темах
Вы не можете прикреплять вложения
Вы не можете редактировать свои сообщения

Быстрый переход



Текущее время: 00:59. Часовой пояс GMT +3.
Powered by vBulletin® Version 3.8.7
Copyright ©2000 - 2017, vBulletin Solutions, Inc. Перевод: zCarot
© 2008 - 2017 Taifun With Song
Яндекс.Метрика