TAIFUN With Song
Навигация
Саундтреки Саундтреки к фильмам, анимации, играм, сериалам

А знаете ли Вы, что...
Кто такой Сироб Вокищнеберг, упомянутый в описании альбома «Яблокитай» группы «Наутилус Помпилиус»?
«В описании альбома «Яблокитай» группы «Наутилус Помпилиус» указан некий профессор Сироб Вокищнеберг, играющий на реверсах. Этот таинственный человек никто иной, как Борис Гребенщиков, записанный наоборот. Таким образом удачно обыграли его работу с реверсами — прокручиванием музыкальных фрагментов в обратном направлении.»
 
Опции темы

  #1
Старый 02.02.2016, 17:51
sergych
Координатор
Досье
 
Аватар для sergych
Релиз Cirque Du Soleil - O


1998 - Cirque du Soleil - O




Исполнитель/Artist: Cirque du Soleil
Альбом/Album: O
Год/Year: 1998
Жанр/Genre: soundtrack
Страна/Country: Соединённые Штаты
Рекорд-лейбл/Record label: RCA Victor / BMG Classics
Номер в каталоге/Catalogue #: 09026-63358-2
Формат/Format: Free Lossless Audio Codec (*.flac)
Качество/Quality: Lossless
Тип рипа/RIP Type: image+.cue
Продолжительность/Length: 01:03:21
Источник/Source: Собственный рип
Размер/Size: 472.7 MB

Сканы в комплекте

Треклист

01. Jeux d'eau [0:04:21.45]
02. Mer noire [0:05:23.60]
03. Tzelma [0:03:07.72]
04. Africa [0:02:18.43]
05. Remous [0:07:16.02]
06. Svecounia [0:05:50.33]
07. Nostalgie [0:04:05.55]
08. Simcha [0:05:22.25]
09. Gamelan [0:05:44.60]
10. Ephra [0:04:41.65]
11. Desert [0:07:53.10]
12. Terre aride [0:04:37.00]
13. O [0:02:36.72]
[свернуть]

youtube.com

[свернуть]

EAC лог

Exact Audio Copy V1.1 from 23. June 2015

EAC extraction logfile from 30. January 2016, 3:41

Cirque du Soleil / O

Used drive : ATAPI iHAS124 D Adapter: 0 ID: 2

Read mode : Secure
Utilize accurate stream : Yes
Defeat audio cache : Yes
Make use of C2 pointers : No

Read offset correction : 6
Overread into Lead-In and Lead-Out : No
Fill up missing offset samples with silence : Yes
Delete leading and trailing silent blocks : No
Null samples used in CRC calculations : Yes
Used interface : Installed external ASPI interface

Used output format : User Defined Encoder
Selected bitrate : 1024 kBit/s
Quality : High
Add ID3 tag : Yes
Command line compressor : C:\Program Files (x86)\Exact Audio Copy\Flac\flac.exe
Additional command line options : -6 -V -T "ARTIST=%artist%" -T "TITLE=%title%" -T "ALBUM=%albumtitle%" -T "DATE=%year%" -T "TRACKNUMBER=%tracknr%" -T "GENRE=%genre%" -T "COMMENT=%comment%" -T "BAND=%albuminterpret%" -T "COMPOSER=%composer%" %haslyrics%--tag-from-file=LYRICS="%lyricsfile%"%haslyrics% -T "DISCNUMBER=%cdnumber%" -T "TOTALDISCS=%totalcds%" -T "TOTALTRACKS=%numtracks%" %hascover%--picture="%coverfile%"%hascover% %source% -o %dest%


TOC of the extracted CD

Track | Start | Length | Start sector | End sector
---------------------------------------------------------
1 | 0:00.00 | 4:21.45 | 0 | 19619
2 | 4:21.45 | 5:23.60 | 19620 | 43904
3 | 9:45.30 | 3:07.72 | 43905 | 58001
4 | 12:53.27 | 2:18.43 | 58002 | 68394
5 | 15:11.70 | 7:16.02 | 68395 | 101096
6 | 22:27.72 | 5:50.33 | 101097 | 127379
7 | 28:18.30 | 4:05.55 | 127380 | 145809
8 | 32:24.10 | 5:22.25 | 145810 | 169984
9 | 37:46.35 | 5:44.60 | 169985 | 195844
10 | 43:31.20 | 4:41.65 | 195845 | 216984
11 | 48:13.10 | 7:53.10 | 216985 | 252469
12 | 56:06.20 | 4:37.00 | 252470 | 273244
13 | 60:43.20 | 2:36.72 | 273245 | 285016


Range status and errors

Selected range

Filename C:\mm\Cirque Du Soleil\1998 - ''O'' [09026-63358-2]\Cirque du Soleil - O.wav

Peak level 84.7 %
Extraction speed 9.1 X
Range quality 100.0 %
Test CRC A907570B
Copy CRC A907570B
Copy OK

No errors occurred


AccurateRip summary

Track 1 accurately ripped (confidence 28) [BB7E64EF] (AR v2)
Track 2 accurately ripped (confidence 27) [978B494A] (AR v2)
Track 3 accurately ripped (confidence 27) [32DAEC69] (AR v2)
Track 4 accurately ripped (confidence 27) [4C7B76C2] (AR v2)
Track 5 accurately ripped (confidence 26) [8473A943] (AR v2)
Track 6 accurately ripped (confidence 27) [71258CC4] (AR v2)
Track 7 accurately ripped (confidence 27) [E2FF4CA3] (AR v2)
Track 8 accurately ripped (confidence 27) [7DD95DC4] (AR v2)
Track 9 accurately ripped (confidence 27) [A37A4DAC] (AR v2)
Track 10 accurately ripped (confidence 26) [D4934835] (AR v2)
Track 11 accurately ripped (confidence 26) [D2AB4D77] (AR v2)
Track 12 accurately ripped (confidence 27) [5116CC7D] (AR v2)
Track 13 accurately ripped (confidence 26) [4DA89F98] (AR v2)

All tracks accurately ripped

End of status report
[свернуть]

Файл CUE

REM GENRE Soundtrack
REM DATE 1998
REM DISCID CA0ED80D
REM COMMENT "ExactAudioCopy v1.1"
PERFORMER "Cirque du Soleil"
TITLE "O"
FILE "Cirque du Soleil - O.flac" WAVE
TRACK 01 AUDIO
TITLE "Jeux d'eau"
PERFORMER "Cirque du Soleil"
INDEX 01 00:00:00
TRACK 02 AUDIO
TITLE "Mer noire"
PERFORMER "Cirque du Soleil"
INDEX 00 04:20:22
INDEX 01 04:21:45
TRACK 03 AUDIO
TITLE "Tzelma"
PERFORMER "Cirque du Soleil"
INDEX 00 09:44:45
INDEX 01 09:45:30
TRACK 04 AUDIO
TITLE "Africa"
PERFORMER "Cirque du Soleil"
INDEX 00 12:52:45
INDEX 01 12:53:27
TRACK 05 AUDIO
TITLE "Remous"
PERFORMER "Cirque du Soleil"
INDEX 01 15:11:70
TRACK 06 AUDIO
TITLE "Svecounia"
PERFORMER "Cirque du Soleil"
INDEX 00 22:27:12
INDEX 01 22:27:72
TRACK 07 AUDIO
TITLE "Nostalgie"
PERFORMER "Cirque du Soleil"
INDEX 00 28:17:20
INDEX 01 28:18:30
TRACK 08 AUDIO
TITLE "Simcha"
PERFORMER "Cirque du Soleil"
INDEX 00 32:23:00
INDEX 01 32:24:10
TRACK 09 AUDIO
TITLE "Gamelan"
PERFORMER "Cirque du Soleil"
INDEX 01 37:46:35
TRACK 10 AUDIO
TITLE "Ephra"
PERFORMER "Cirque du Soleil"
INDEX 00 43:30:12
INDEX 01 43:31:20
TRACK 11 AUDIO
TITLE "Desert"
PERFORMER "Cirque du Soleil"
INDEX 00 48:11:47
INDEX 01 48:13:10
TRACK 12 AUDIO
TITLE "Terre aride"
PERFORMER "Cirque du Soleil"
INDEX 00 56:05:12
INDEX 01 56:06:20
TRACK 13 AUDIO
TITLE "O"
PERFORMER "Cirque du Soleil"
INDEX 00 60:41:72
INDEX 01 60:43:20
[свернуть]

Лог проверки качества

AUDIOCHECKER v2.0 beta (build 457) - by Dester -
~~~~~~~~~~~~~~~~~~~~~~~~~~~~~~~~~~
-=== НЕ РЕДАКТИРУЙТЕ ЭТОТ ФАЙЛ! ===-

Путь: ...\1998 - ''O'' [09026-63358-2]

1 -=- Cirque du Soleil - O.flac -=- CDDA (100%)

167019012
[свернуть]

Спектр частот

[свернуть]

Скачать Cirque du Soleil - O



password: sergych
[свернуть]
My opinion of release: 10/10
__________________
TAIFUN.Wings of Soul

Вверх
Пользователь сказал cпасибо:
impact (17.08.2016)
Похожие темы
Тема Автор Раздел Ответов Последнее сообщение
Саундтрек Cirque Du Soleil - Dralion sergych Саундтреки 0 05.12.2015 11:18
Сборник Cirque Du Soleil - Le Best of Cirque du Soleil sergych Саундтреки 0 14.05.2015 18:57
Саундтрек Cirque Du Soleil - Mystere: Live in Las Vegas sergych Саундтреки 0 13.05.2015 20:35
Альбом Cirque Du Soleil - Alegria sergych Саундтреки 0 25.10.2014 09:29
Cirque du Soleil: Сказочный мир / Cirque du Soleil: Worlds Away (2012) HDRip maxy666 Киномания 0 30.03.2013 19:35


Метки
1998 , cirque du soleil , soundtrack

Опции темы

Ваши права в разделе
Вы не можете создавать новые темы
Вы не можете отвечать в темах
Вы не можете прикреплять вложения
Вы не можете редактировать свои сообщения

Быстрый переход



Текущее время: 21:03. Часовой пояс GMT +3.
Powered by vBulletin® Version 3.8.10
Copyright ©2000 - 2018, vBulletin Solutions, Inc. Перевод: zCarot
© 2008 - 2018 Taifun With Song
Яндекс.Метрика