TAIFUN With Song
Навигация
Вернуться   TAIFUN With Song > Music (обменник) > Rock > Experimental Rock
Расширенный поиск
Experimental Rock Как следует из названия, данный стиль является диаметрально противоположным "стандартной" музыке с ее структурой "запев-привев". Так как вся суть заключается в новаторстве и отходе от стереотипов, в Experimental Rock не существует никаких твердых правил, но его отличительными свойствами все же являются импровизационность, влияния авангарда, странноватые аранжировки, туманные тексты (если они вообще присутствуют), непривычные композиционные построения и ритмы, а также подчеркнутое отвержение коммерческих перспектив.

А знаете ли Вы, что...
За какие заслуги музыкантов принимают в «Клуб 27»?
«Среди известных рок- и блюз-музыкантов весьма значительна доля тех, кто умер в 27 лет. Именно в этом возрасте почему-то возникает статистическая погрешность, выделяющаяся из нормального распределения. Для таких музыкантов даже приняли название «Клуб 27». В него включают Джима Моррисона, Джими Хендрикса, Дженис Джоплин, Курта Кобейна и Брайана Джонса. В 27 лет умер также легендарный советский рок-музыкант и поэт Александр Башлачёв.»
 
Опции темы

  #1
Старый 13.02.2014, 17:09
sergych
Координатор
Досье
 
Аватар для sergych
Релиз Tom Waits - We're All Mad Here: A Conversation With Tom Waits


2002 - Tom Waits - We're All Mad Here: A Conversation With Tom Waits




Исполнитель/Artist: Tom Waits
Альбом/Album: We're All Mad Here: A Conversation With Tom Waits {Promo}
Год/Year: 2002
Жанр/Genre: Rock, experimental
Страна/Country: Соединённые Штаты
Рекорд-лейбл/Record label: ANTI- / Epitaph
Номер в каталоге/Catalogue #: 86632-2P1
Формат/Format: Free Lossless Audio Codec (*.flac)
Качество/Quality: Lossless
Тип рипа/RIP Type: image+.cue
Продолжительность/Length: 00:52:08
Источник/Source: Собственный рип
Размер/Size: 301.8 MB

Сканы в комплекте

Треклист

01. Intro: "Misery Is the River of the World" (Fragment From Blood Money) [0:00:27.65]
02. Introductory Remark [0:00:09.57]
03. Marketing Strategy [0:00:59.03]
04. Song: "God's Away On Business" (From Blood Money) [0:02:59.10]
05. The Word "Opera" Means Work [0:01:32.72]
06. Song: "Table Top Joe" (From Alice) [0:04:10.65]
07. Magic or Medicine? [0:00:34.38]
08. Alice On Ice [0:00:52.20]
09. Song: "Alice" (From Alice) [0:04:25.50]
10. Getting an Early Start [0:00:53.05]
11. Song: "Kommienezuspadt" (From Alice) [0:03:57.40]
12. The Program [0:00:50.45]
13. Circular Violin [0:01:24.30]
14. Song: "We're All Mad Here" (From Alice) [0:02:30.22]
15. Two or More Sides [0:00:24.53]
16. Strumming the Spider's Web [0:02:10.52]
17. Song: "Watch 'em Disappear" (From Alice) [0:02:29.45]
18. Word Guy, Word Gal [0:01:12.43]
19. Song: "Lullaby" (From Blood Money) [0:02:08.65]
20. I Might Just Hum It [0:01:27.27]
21. Song: "Another Man's Vine" (From Blood Money) [0:02:25.35]
22. Sexy and Scary [0:00:21.03]
23. Spastic Colon [0:00:33.25]
24. Song: "Starving in the Belly of a Whale" (From Blood Money) [0:03:40.64]
25. Kind of a Riddle [0:00:25.53]
26. The Highest Form of Flattery [0:01:17.43]
27. Song: "Woe" (From Blood Money) [0:01:19.70]
28. New Song Titles [0:02:29.59]
29. Closing Pitch [0:00:47.18]
30. Song: "Fawn" (From Alice) [0:01:40.73]
31. Creamed [0:01:24.67]
[свернуть]

youtube.com

[свернуть]

EAC лог

Exact Audio Copy V1.0 beta 3 from 29. August 2011

EAC extraction logfile from 13. February 2014, 15:33

Tom Waits / We're All Mad Here: A Conversation With Tom Waits

Used drive : HL-DT-STDVDRAM GH22NS50 Adapter: 3 ID: 0

Read mode : Secure
Utilize accurate stream : Yes
Defeat audio cache : Yes
Make use of C2 pointers : No

Read offset correction : 667
Overread into Lead-In and Lead-Out : No
Fill up missing offset samples with silence : Yes
Delete leading and trailing silent blocks : No
Null samples used in CRC calculations : Yes
Used interface : Installed external ASPI interface

Used output format : User Defined Encoder
Selected bitrate : 1024 kBit/s
Quality : High
Add ID3 tag : No
Command line compressor : C:\MMProgram\Exact Audio Copy\FLAC\FLAC.EXE
Additional command line options : -6 -V -T "ARTIST=%artist%" -T "TITLE=%title%" -T "ALBUM=%albumtitle%" -T "DATE=%year%" -T "TRACKNUMBER=%tracknr%" -T "GENRE=%genre%" -T "COMMENT=%comment%" -T "BAND=%albuminterpret%" -T "ALBUMARTIST=%albuminterpret%" -T "COMPOSER=%composer%" %haslyrics%--tag-from-file=LYRICS="%lyricsfile%"%haslyrics% -T "DISCNUMBER=%cdnumber%" -T "TOTALDISCS=%totalcds%" -T "TOTALTRACKS=%numtracks%" %hascover%--picture="%coverfile%"%hascover% %source% -o %dest%


TOC of the extracted CD

Track | Start | Length | Start sector | End sector
---------------------------------------------------------
1 | 0:00.00 | 0:27.65 | 0 | 2089
2 | 0:27.65 | 0:09.57 | 2090 | 2821
3 | 0:37.47 | 0:59.03 | 2822 | 7249
4 | 1:36.50 | 2:59.10 | 7250 | 20684
5 | 4:35.60 | 1:32.72 | 20685 | 27656
6 | 6:08.57 | 4:10.65 | 27657 | 46471
7 | 10:19.47 | 0:34.38 | 46472 | 49059
8 | 10:54.10 | 0:52.20 | 49060 | 52979
9 | 11:46.30 | 4:25.50 | 52980 | 72904
10 | 16:12.05 | 0:53.05 | 72905 | 76884
11 | 17:05.10 | 3:57.40 | 76885 | 94699
12 | 21:02.50 | 0:50.45 | 94700 | 98494
13 | 21:53.20 | 1:24.30 | 98495 | 104824
14 | 23:17.50 | 2:30.22 | 104825 | 116096
15 | 25:47.72 | 0:24.53 | 116097 | 117949
16 | 26:12.50 | 2:10.52 | 117950 | 127751
17 | 28:23.27 | 2:29.45 | 127752 | 138971
18 | 30:52.72 | 1:12.43 | 138972 | 144414
19 | 32:05.40 | 2:08.65 | 144415 | 154079
20 | 34:14.30 | 1:27.27 | 154080 | 160631
21 | 35:41.57 | 2:25.35 | 160632 | 171541
22 | 38:07.17 | 0:21.03 | 171542 | 173119
23 | 38:28.20 | 0:33.25 | 173120 | 175619
24 | 39:01.45 | 3:40.64 | 175620 | 192183
25 | 42:42.34 | 0:25.53 | 192184 | 194111
26 | 43:08.12 | 1:17.43 | 194112 | 199929
27 | 44:25.55 | 1:19.70 | 199930 | 205924
28 | 45:45.50 | 2:29.59 | 205925 | 217158
29 | 48:15.34 | 0:47.18 | 217159 | 220701
30 | 49:02.52 | 1:40.73 | 220702 | 228274
31 | 50:43.50 | 1:24.67 | 228275 | 234641


Range status and errors

Selected range

Filename D:\mm\Tom Waits\2002 - We're All Mad Here. A Conversation with Tom Waits [86632-2P1]\Tom Waits - We're All Mad Here- A Conversation With Tom Waits.wav

Peak level 100.0 %
Extraction speed 1.2 X
Range quality 100.0 %
Test CRC E2B1DF32
Copy CRC E2B1DF32
Copy OK

No errors occurred


AccurateRip summary

Track 1 accurately ripped (confidence 1) [E26B421D] (AR v2)
Track 2 accurately ripped (confidence 1) [FA656228] (AR v2)
Track 3 accurately ripped (confidence 1) [DE05AB17] (AR v2)
Track 4 accurately ripped (confidence 1) [D37F03F7] (AR v2)
Track 5 accurately ripped (confidence 1) [5523DCAA] (AR v2)
Track 6 accurately ripped (confidence 1) [02FB64E1] (AR v2)
Track 7 accurately ripped (confidence 1) [AD274E1E] (AR v2)
Track 8 accurately ripped (confidence 1) [5368109A] (AR v2)
Track 9 accurately ripped (confidence 1) [1D08C569] (AR v2)
Track 10 accurately ripped (confidence 1) [29EF7386] (AR v2)
Track 11 accurately ripped (confidence 1) [C43E385C] (AR v2)
Track 12 accurately ripped (confidence 1) [1DA068DA] (AR v2)
Track 13 accurately ripped (confidence 1) [6898FB8A] (AR v2)
Track 14 accurately ripped (confidence 1) [A4E0ED9F] (AR v2)
Track 15 accurately ripped (confidence 1) [443831C8] (AR v2)
Track 16 accurately ripped (confidence 1) [85A63D68] (AR v2)
Track 17 accurately ripped (confidence 1) [10CF98D3] (AR v2)
Track 18 accurately ripped (confidence 1) [BAE4C8B6] (AR v2)
Track 19 accurately ripped (confidence 1) [0C5CB6A9] (AR v2)
Track 20 accurately ripped (confidence 1) [A2B806EC] (AR v2)
Track 21 accurately ripped (confidence 1) [BE2E0507] (AR v2)
Track 22 accurately ripped (confidence 1) [95167687] (AR v2)
Track 23 accurately ripped (confidence 1) [42BC335C] (AR v2)
Track 24 accurately ripped (confidence 1) [BA59BC1A] (AR v2)
Track 25 accurately ripped (confidence 1) [64B563A1] (AR v2)
Track 26 accurately ripped (confidence 1) [CAF7470B] (AR v2)
Track 27 accurately ripped (confidence 1) [CA3FD3F4] (AR v2)
Track 28 accurately ripped (confidence 1) [C8C76E75] (AR v2)
Track 29 accurately ripped (confidence 1) [CEF81E17] (AR v2)
Track 30 accurately ripped (confidence 1) [E14CE664] (AR v2)
Track 31 accurately ripped (confidence 1) [C7085727] (AR v2)

All tracks accurately ripped

End of status report

==== Log checksum 7BF9C53081896B1107D21169741A00B7550FC82B786C35CD12C59DCFF0DBD0F6 ====
[свернуть]

Файл CUE

REM GENRE Alternative
REM DATE 2002
REM DISCID D00C381F
REM COMMENT "ExactAudioCopy v1.0b3"
PERFORMER "Tom Waits"
TITLE "We're All Mad Here: A Conversation With Tom Waits"
FILE "Tom Waits - We're All Mad Here- A Conversation With Tom Waits.flac" WAVE
TRACK 01 AUDIO
TITLE "Intro: 'Misery Is the River of the World' (Fragment From Blood Money)"
PERFORMER "Tom Waits"
INDEX 01 00:00:00
TRACK 02 AUDIO
TITLE "Introductory Remark"
PERFORMER "Tom Waits"
INDEX 01 00:27:65
TRACK 03 AUDIO
TITLE "Marketing Strategy"
PERFORMER "Tom Waits"
INDEX 01 00:37:47
TRACK 04 AUDIO
TITLE "Song: 'God's Away On Business' (From Blood Money)"
PERFORMER "Tom Waits"
INDEX 01 01:36:50
TRACK 05 AUDIO
TITLE "The Word 'Opera' Means Work"
PERFORMER "Tom Waits"
INDEX 01 04:35:60
TRACK 06 AUDIO
TITLE "Song: 'Table Top Joe' (From Alice)"
PERFORMER "Tom Waits"
INDEX 01 06:08:57
TRACK 07 AUDIO
TITLE "Magic or Medicine?"
PERFORMER "Tom Waits"
INDEX 01 10:19:47
TRACK 08 AUDIO
TITLE "Alice On Ice"
PERFORMER "Tom Waits"
INDEX 01 10:54:10
TRACK 09 AUDIO
TITLE "Song: 'Alice' (From Alice)"
PERFORMER "Tom Waits"
INDEX 01 11:46:30
TRACK 10 AUDIO
TITLE "Getting an Early Start"
PERFORMER "Tom Waits"
INDEX 01 16:12:05
TRACK 11 AUDIO
TITLE "Song: 'Kommienezuspadt' (From Alice)"
PERFORMER "Tom Waits"
INDEX 01 17:05:10
TRACK 12 AUDIO
TITLE "The Program"
PERFORMER "Tom Waits"
INDEX 01 21:02:50
TRACK 13 AUDIO
TITLE "Circular Violin"
PERFORMER "Tom Waits"
INDEX 01 21:53:20
TRACK 14 AUDIO
TITLE "Song: 'We're All Mad Here' (From Alice)"
PERFORMER "Tom Waits"
INDEX 01 23:17:50
TRACK 15 AUDIO
TITLE "Two or More Sides"
PERFORMER "Tom Waits"
INDEX 01 25:47:72
TRACK 16 AUDIO
TITLE "Strumming the Spider's Web"
PERFORMER "Tom Waits"
INDEX 01 26:12:50
TRACK 17 AUDIO
TITLE "Song: 'Watch 'em Disappear' (From Alice)"
PERFORMER "Tom Waits"
INDEX 01 28:23:27
TRACK 18 AUDIO
TITLE "Word Guy, Word Gal"
PERFORMER "Tom Waits"
INDEX 01 30:52:72
TRACK 19 AUDIO
TITLE "Song: 'Lullaby' (From Blood Money)"
PERFORMER "Tom Waits"
INDEX 01 32:05:40
TRACK 20 AUDIO
TITLE "I Might Just Hum It"
PERFORMER "Tom Waits"
INDEX 01 34:14:30
TRACK 21 AUDIO
TITLE "Song: 'Another Man's Vine' (From Blood Money)"
PERFORMER "Tom Waits"
INDEX 01 35:41:57
TRACK 22 AUDIO
TITLE "Sexy and Scary"
PERFORMER "Tom Waits"
INDEX 01 38:07:17
TRACK 23 AUDIO
TITLE "Spastic Colon"
PERFORMER "Tom Waits"
INDEX 01 38:28:20
TRACK 24 AUDIO
TITLE "Song: 'Starving in the Belly of a Whale' (From Blood Money)"
PERFORMER "Tom Waits"
INDEX 01 39:01:45
TRACK 25 AUDIO
TITLE "Kind of a Riddle"
PERFORMER "Tom Waits"
INDEX 01 42:42:34
TRACK 26 AUDIO
TITLE "The Highest Form of Flattery"
PERFORMER "Tom Waits"
INDEX 01 43:08:12
TRACK 27 AUDIO
TITLE "Song: 'Woe' (From Blood Money)"
PERFORMER "Tom Waits"
INDEX 01 44:25:55
TRACK 28 AUDIO
TITLE "New Song Titles"
PERFORMER "Tom Waits"
INDEX 01 45:45:50
TRACK 29 AUDIO
TITLE "Closing Pitch"
PERFORMER "Tom Waits"
INDEX 01 48:15:34
TRACK 30 AUDIO
TITLE "Song: 'Fawn' (From Alice)"
PERFORMER "Tom Waits"
INDEX 01 49:02:52
TRACK 31 AUDIO
TITLE "Creamed"
PERFORMER "Tom Waits"
INDEX 01 50:43:50
[свернуть]

Лог проверки качества

AUDIOCHECKER v2.0 beta (build 457) - by Dester -
~~~~~~~~~~~~~~~~~~~~~~~~~~~~~~~~~~
-=== НЕ РЕДАКТИРУЙТЕ ЭТОТ ФАЙЛ! ===-

Путь: ...\2002 - We're All Mad Here. A Conversation with Tom Waits [86632-2P1]

1 -=- Tom Waits - We're All Mad Here- A Conversation With Tom Waits.flac -=- CDDA (100%)

111115188
[свернуть]

Спектр частот

[свернуть]

Скачать Tom Waits - We're All Mad Here: A Conversation With Tom Waits



password: sergych
[свернуть]
My opinion of release: 9/10

Release info RInfo

For promotional use only. Not for sale.
__________________
TAIFUN.Wings of Soul

Вверх
Похожие темы
Тема Автор Раздел Ответов Последнее сообщение
Live Tom Waits - Big Time sergych Experimental Rock 0 06.10.2013 14:39
Альбом Tom Waits - Bad As Me sergych Jazz и Blues 0 20.11.2011 21:37
Альбом Tom Waits - Alice sergych Jazz и Blues 0 01.04.2010 18:15
Сборник Tom Waits & Friends - The Ghost Of Tom Waits sergych Jazz и Blues 0 24.01.2009 00:19
Сингл Tom Waits - Hold On (EP) sergych Jazz и Blues 0 19.01.2009 20:34


Метки
2002 , experimental , rock , tom waits , we're all mad here: a conversation with tom waits {promo}

Опции темы

Ваши права в разделе
Вы не можете создавать новые темы
Вы не можете отвечать в темах
Вы не можете прикреплять вложения
Вы не можете редактировать свои сообщения

Быстрый переход



Текущее время: 19:07. Часовой пояс GMT +3.
Powered by vBulletin® Version 3.8.10
Copyright ©2000 - 2018, vBulletin Solutions, Inc. Перевод: zCarot
© 2008 - 2018 Taifun With Song
Яндекс.Метрика