TAIFUN With Song
Навигация
А знаете ли Вы, что...
Зачем Джимми Хендрикс на некоторых концертах целовал в щёку своего бас-гитариста?
«В песне Джимми Хендрикса «Purple Haze» есть строчка: «Excuse me while I kiss the sky» («Прости меня, когда я целую небеса»). Очень часто слушатели понимали её совсем по-другому: «Excuse me while I kiss this guy» («Прости меня, когда я целую этого парня»). Сам Хендрикс знал об этой ослышке и иногда после исполнения этой строчки целовал в щёку своего бас-гитариста.»
 
Опции темы

  #1
Старый 22.01.2012, 11:54
RRock-melomanXP
Друг форума
Досье
 
Аватар для RRock-melomanXP
По умолчанию Scorpions - Crazy World Tour Live

Scorpions - Crazy World Tour Live (1991) DVDRIP




Исполнитель: Scorpions
Альбом: Crazy World Tour Live
Год выхода: 1991
Страна: Germany
Жанр: Hard Rock
Время: 01:17:15
Качество: DVDRip
Quote: AVI: Разр. 512x384, 29 кадров в сек.,
Complete name : .avi
Format : AVI
Format/Info : Audio Video Interleave
File size : 553 MiB
Duration : 55mn 23s
Overall bit rate : 1 395 Kbps

подробно

Video..........
ID : 0
Format : MPEG-4 Visual
Format settings, BVOP : 1
Format settings, QPel : No
Format settings, GMC : 2 warppoints
Format settings, Matrix : Default (H.263)
Muxing mode : Packed bitstream
Codec ID : DX50
Codec ID/Hint : DivX 5
Duration : 55mn 23s
Bit rate : 1 000 Kbps
Width : 512 pixels
Height : 384 pixels
Display aspect ratio : 4:3
Frame rate : 29.970 fps
Color space : YUV
Chroma subsampling : 4:2:0
Bit depth : 8 bits
Scan type : Progressive
Compression mode : Lossy
Bits/(Pixel*Frame) : 0.170
Stream size : 396 MiB (72%)
Writing library : DivX 5.0.2 (UTC 2002-05-16)

Audio ............
ID : 1
Format : AC-3
Format/Info : Audio Coding 3
Mode extension : CM (complete main)
Codec ID : 2000
Duration : 55mn 23s
Bit rate mode : Constant
Bit rate : 384 Kbps
Channel(s) : 2 channels
Channel positions : Front: L R
Sampling rate : 48.0 KHz
Bit depth : 16 bits
Compression mode : Lossy
Stream size : 152 MiB (28%)
Alignment : Split accross interleaves
Interleave, duration : 33 ms (1.00 video frame)
Interleave, preload duration : 500 ms
[свернуть]
Размер: 1,95 Gb (+3% на восст.)

Захватывающее живое выступление и студийные видеоклипы для поклонников Scorpions - одной из лучших групп на мировой рок-сцене.

Треклист:

треклист


01. Bad Boys Running Wild
02. Hit Between The Eyes
03. Tease Me Please Me (Video Clip)
04. Can't Explain
05. The Zoo
06. Don't Believe Her (Video Clip)
07. Rhythm Of Love
08. Crazy World
09. Can't Live Without You
10. Blackout
11. Dynamite
12. Lust Or Love
13. Send Me An Angel (Video Clip)
14. Big City Nights
15. Rock You Like A Hurricane
16. Wind Of Change (Video Clip)
[свернуть]

скачать

http://www.megaupload.com/?d=1GVDNS6M (800MB)















Пароль на архивы/Password: Siladus
[свернуть]
__________________
Будь интерактивным, будь с нами, поддержи рок-движение в России, слушай рок-музыку!!!


Последний раз редактировалось RRock-melomanXP, 06.02.2012 в 22:48.
Вверх
Похожие темы
Тема Автор Раздел Ответов Последнее сообщение
Live Scorpions - Live At Moscow PUPOKIN Hard Rock 0 30.05.2011 08:23
Релиз The Doobie Brothers – World Gone Crazy PUPOKIN Soft Rock 0 21.10.2010 09:03
Релиз Scorpions - Crazy World Tour 90-91 (2010) RRock-melomanXP Hard Rock 0 04.05.2010 09:06
Avril Lavigne - The Best Damn Tour Live In Toronto PUPOKIN Зарубежная Поп-Музыка 1 11.10.2008 18:31
Альбом Scorpions - Crazy World Alex1990 Hard Rock 0 17.05.2008 12:30


Опции темы

Ваши права в разделе
Вы не можете создавать новые темы
Вы не можете отвечать в темах
Вы не можете прикреплять вложения
Вы не можете редактировать свои сообщения

Быстрый переход



Текущее время: 12:05. Часовой пояс GMT +3.
Powered by vBulletin® Version 3.8.10
Copyright ©2000 - 2018, vBulletin Solutions, Inc. Перевод: zCarot
© 2008 - 2018 Taifun With Song
Яндекс.Метрика