TAIFUN With Song
Навигация
Вернуться   TAIFUN With Song > Music (обменник) > Другие направления музыки > Jazz и Blues
Расширенный поиск
Jazz и Blues Гибкая ритмика, импровизационное начало, гармонии и мелодии - все это Jazz. Blues - жизнеутверждающая музыка, рожденная из душевной боли

А знаете ли Вы, что...
Какая песня Стинга, понимаемая многими как гимн любви, имеет противоположный смысл?
«Песня «Every Breath You Take», визитная карточка группы The Police, многими воспринимается как гимн любви и даже используется как главная тема на свадьбах. Однако сочинивший песню Стинг говорил, что такое понимание в корне неверно. Он написал текст во время развода с женой, и лирический герой песни — вовсе не влюблённый романтик, а злой ревнивец, следящий за каждым шагом объекта своей страсти. В общем настроении текста, по мнению Стинга, можно даже увидеть аллегорию на Большого Брата.»
 
Опции темы

  #1
Старый 21.04.2013, 14:08
sergych
Координатор
Досье
 
Аватар для sergych
Релиз Lester Young With The Oscar Peterson Trio


1952(1997(2005)) - Lester Young With The Oscar Peterson Trio




Исполнитель/Artist: Lester Young & The Oscar Peterson Trio
Альбом/Album: Lester Young With The Oscar Peterson Trio
Год/Year: 1952
Ремастеринг/Remaster: 2005
Жанр/Genre: Jazz
Страна/Country: Германия
Рекорд-лейбл/Record label: Norgran Records / Verve
Номер в каталоге/Catalogue #: 0602498840481
Формат/Format: Free Lossless Audio Codec (*.flac)
Качество/Quality: Lossless
Тип рипа/RIP Type: image+.cue
Продолжительность/Length: 01:03:53
Источник/Source: Собственный рип
Размер/Size: 223.3 MB

Сканы в комплекте

Треклист

01. Ad Lib Blues [0:05:54.25]
02. I Can't Get Started [0:03:41.23]
03. Just You, Just Me [0:07:41.02]
04. Almost Like Being In Love [0:03:34.48]
05. Tea For Two [0:07:45.12]
06. There Will Never Be Another You [0:03:28.38]
07. (Back Home Again In) Indiana [0:07:04.30]
08. On The Sunny Side Of The Street [0:03:27.57]
09. Star Dust [0:03:35.58]
10. I'm Confessin' [0:03:42.50]
11. I Can't Give You Anything But Love [0:03:23.17]
12. These Foolish Things [0:03:32.50]

Bonus tracks on CD reissue:
13. (It Takes) Two To Tango [0:06:09.15]
14. I Can't Get Started [false start] [0:00:52.23]
[свернуть]

youtube.com

[свернуть]

Исполнители/Performers

Lester Young – tenor saxophone, vocals on Two To Tango
Oscar Peterson – piano
Barney Kessel – guitar
Ray Brown – double bass
J. C. Heard - drums
[свернуть]

EAC лог

Exact Audio Copy V1.3 from 2. September 2016

EAC extraction logfile from 7. June 2018, 20:35

Lester Young / Lester Young with The Oscar Peterson Trio

Used drive : ATAPI iHAS124 D Adapter: 0 ID: 2

Read mode : Secure
Utilize accurate stream : Yes
Defeat audio cache : Yes
Make use of C2 pointers : No

Read offset correction : 6
Overread into Lead-In and Lead-Out : No
Fill up missing offset samples with silence : Yes
Delete leading and trailing silent blocks : No
Null samples used in CRC calculations : Yes
Used interface : Installed external ASPI interface

Used output format : User Defined Encoder
Selected bitrate : 1024 kBit/s
Quality : High
Add ID3 tag : No
Command line compressor : C:\Program Files (x86)\Exact Audio Copy\Flac\flac.exe
Additional command line options : -6 -V -T "ARTIST=%artist%" -T "TITLE=%title%" -T "ALBUM=%albumtitle%" -T "DATE=%year%" -T "TRACKNUMBER=%tracknr%" -T "GENRE=%genre%" -T "COMMENT=%comment%" -T "BAND=%albuminterpret%" -T "ALBUMARTIST=%albuminterpret%" -T "COMPOSER=%composer%" %haslyrics%--tag-from-file=LYRICS="%lyricsfile%"%haslyrics% -T "DISCNUMBER=%cdnumber%" -T "TOTALDISCS=%totalcds%" -T "TOTALTRACKS=%numtracks%" %hascover%--picture="%coverfile%"%hascover% %source% -o %dest%


TOC of the extracted CD

Track | Start | Length | Start sector | End sector
---------------------------------------------------------
1 | 0:00.00 | 5:54.25 | 0 | 26574
2 | 5:54.25 | 3:41.23 | 26575 | 43172
3 | 9:35.48 | 7:41.02 | 43173 | 77749
4 | 17:16.50 | 3:34.48 | 77750 | 93847
5 | 20:51.23 | 7:45.12 | 93848 | 128734
6 | 28:36.35 | 3:28.38 | 128735 | 144372
7 | 32:04.73 | 7:04.30 | 144373 | 176202
8 | 39:09.28 | 3:27.57 | 176203 | 191784
9 | 42:37.10 | 3:35.58 | 191785 | 207967
10 | 46:12.68 | 3:42.50 | 207968 | 224667
11 | 49:55.43 | 3:23.17 | 224668 | 239909
12 | 53:18.60 | 3:32.50 | 239910 | 255859
13 | 56:51.35 | 6:09.15 | 255860 | 283549
14 | 63:00.50 | 0:52.23 | 283550 | 287472


Range status and errors

Selected range

Filename C:\mm\Oscar Peterson\1952(1997(2005)) - Lester Young With The Oscar Peterson Trio [0602498840481]\Lester Young - Lester Young with The Oscar Peterson Trio.wav

Peak level 100.0 %
Extraction speed 2.0 X
Range quality 100.0 %
Test CRC EB2AC645
Copy CRC EB2AC645
Copy OK

No errors occurred

End of status report

---- CUETools DB Plugin V2.1.6

[CTDB TOCID: aXtv5Ykk1gouNyTAKHXACxvTDVk-] found
Submit result: aXtv5Ykk1gouNyTAKHXACxvTDVk- has been confirmed
Track | CTDB Status
1 | (70/70) Accurately ripped
2 | (70/70) Accurately ripped
3 | (70/70) Accurately ripped
4 | (70/70) Accurately ripped
5 | (69/70) Accurately ripped
6 | (70/70) Accurately ripped
7 | (70/70) Accurately ripped
8 | (70/70) Accurately ripped
9 | (70/70) Accurately ripped
10 | (70/70) Accurately ripped
11 | (70/70) Accurately ripped
12 | (69/70) Accurately ripped
13 | (68/70) Accurately ripped
14 | (70/70) Accurately ripped
[свернуть]

Файл CUE

REM GENRE Jazz
REM DATE 1952
REM DISCID D00EF80E
REM COMMENT "ExactAudioCopy v1.3"
PERFORMER "Lester Young"
TITLE "Lester Young with The Oscar Peterson Trio"
REM COMPOSER ""
FILE "Lester Young - Lester Young with The Oscar Peterson Trio.flac" WAVE
TRACK 01 AUDIO
TITLE "Ad Lib Blues"
PERFORMER "Lester Young"
REM COMPOSER ""
INDEX 01 00:00:00
TRACK 02 AUDIO
TITLE "I Can't Get Started"
PERFORMER "Lester Young"
REM COMPOSER ""
INDEX 00 05:50:47
INDEX 01 05:54:25
TRACK 03 AUDIO
TITLE "Just You, Just Me"
PERFORMER "Lester Young"
REM COMPOSER ""
INDEX 00 09:33:25
INDEX 01 09:35:48
TRACK 04 AUDIO
TITLE "Almost Like Being In Love"
PERFORMER "Lester Young"
REM COMPOSER ""
INDEX 00 17:12:55
INDEX 01 17:16:50
TRACK 05 AUDIO
TITLE "Tea For Two"
PERFORMER "Lester Young"
REM COMPOSER ""
INDEX 00 20:47:70
INDEX 01 20:51:23
TRACK 06 AUDIO
TITLE "There Will Never Be Another You"
PERFORMER "Lester Young"
REM COMPOSER ""
INDEX 00 28:33:55
INDEX 01 28:36:35
TRACK 07 AUDIO
TITLE "(Back Home Again In) Indiana"
PERFORMER "Lester Young"
REM COMPOSER ""
INDEX 00 32:01:20
INDEX 01 32:04:73
TRACK 08 AUDIO
TITLE "On The Sunny Side Of The Street"
PERFORMER "Lester Young"
REM COMPOSER ""
INDEX 00 39:06:28
INDEX 01 39:09:28
TRACK 09 AUDIO
TITLE "Star Dust"
PERFORMER "Lester Young"
REM COMPOSER ""
INDEX 00 42:33:55
INDEX 01 42:37:10
TRACK 10 AUDIO
TITLE "I'm Confessin'"
PERFORMER "Lester Young"
REM COMPOSER ""
INDEX 00 46:09:13
INDEX 01 46:12:68
TRACK 11 AUDIO
TITLE "I Can't Give You Anything But Love"
PERFORMER "Lester Young"
REM COMPOSER ""
INDEX 00 49:51:60
INDEX 01 49:55:43
TRACK 12 AUDIO
TITLE "These Foolish Things"
PERFORMER "Lester Young"
REM COMPOSER ""
INDEX 00 53:15:05
INDEX 01 53:18:60
TRACK 13 AUDIO
TITLE "(It Takes) Two To Tango"
PERFORMER "Lester Young"
REM COMPOSER ""
INDEX 00 56:42:45
INDEX 01 56:51:35
INDEX 02 59:21:70
INDEX 03 59:43:30
TRACK 14 AUDIO
TITLE "I Can't Get Started [false start]"
PERFORMER "Lester Young"
REM COMPOSER ""
INDEX 00 62:55:32
INDEX 01 63:00:50
[свернуть]

Лог проверки качества

AUDIOCHECKER v2.0 beta (build 457) - by Dester -
~~~~~~~~~~~~~~~~~~~~~~~~~~~~~~~~~~
-=== НЕ РЕДАКТИРУЙТЕ ЭТОТ ФАЙЛ! ===-

Путь: ...\1952(1997(2005)) - Lester Young With The Oscar Peterson Trio [0602498840481]

1 -=- Lester Young - Lester Young with The Oscar Peterson Trio.flac -=- CDDA (100%)

93616644
[свернуть]

Спектр частот

[свернуть]

Скачать Lester Young With The Oscar Peterson Trio



password: sergych
[свернуть]

Контрольная сумма (хеш-сумма) архива

MD5: 2e33176fa088929dbf556ebbbcf8f3a7
[свернуть]
My opinion of release: 10/10

Release info RInfo

Записи 1952 года изначально была выпущены как три отдельных альбома: Lester Young with the Oscar Peterson Trio #1, Lester Young with the Oscar Peterson Trio #2(1954 год) и The President Plays with Oscar Peterson(1956 год). Переиздание 1997 года было вновь выпущено в 2005 году. Заявленное в названии трио Оскара Петерсона в действительности было уже квартетом
__________________
TAIFUN.Wings of Soul


Последний раз редактировалось sergych, 09.06.2018 в 07:24. Причина: замена потрекового рипа образом
Вверх
3 пользователя(ей) сказали cпасибо:
Показать список поблагодаривших
  #2
Старый 09.06.2018, 07:26
sergych
Координатор
Досье
 
Аватар для sergych
По умолчанию Re: Lester Young With The Oscar Peterson Trio

заменил потрековый рип образом, добавил пропущенный ранее скан
__________________
TAIFUN.Wings of Soul

Вверх
2 пользователя(ей) сказали cпасибо:
johnsilver (09.06.2018), swint68 (10.06.2018)
Похожие темы
Тема Автор Раздел Ответов Последнее сообщение
Альбом Oscar Peterson Trio - The Sound of the Trio sergych Jazz и Blues 1 22.06.2018 06:00
Альбом Oscar Peterson Trio - We Get Requests sergych Jazz и Blues 2 15.05.2013 21:59
Альбом Oscar Peterson Trio - Walking The Line sergych Jazz и Blues 0 03.10.2012 21:49
Альбом Oscar Peterson Trio - Another Day sergych Jazz и Blues 0 03.12.2011 11:54
Live Oscar Peterson Trio - The Trio. Live From Chicago sergych Jazz и Blues 0 02.03.2011 20:49


Метки
1997 , jazz , lester young , lester young & the oscar peterson trio , lester young with the oscar peterson trio , oscar peterson , smooth jazz , swing

Опции темы

Ваши права в разделе
Вы не можете создавать новые темы
Вы не можете отвечать в темах
Вы не можете прикреплять вложения
Вы не можете редактировать свои сообщения

Быстрый переход



Текущее время: 06:56. Часовой пояс GMT +3.
Powered by vBulletin® Version 3.8.10
Copyright ©2000 - 2018, vBulletin Solutions, Inc. Перевод: zCarot
© 2008 - 2018 Taifun With Song
Яндекс.Метрика