TAIFUN With Song
Навигация
А знаете ли Вы, что...
Что значил жест «коза» до эпохи рока и металла?
«Жест «коза» существовал долгое время как магический знак для защиты от сглаза и злых духов. Ронни Джеймс Дио — солист групп Rainbow и Black Sabbath — был первым, кто показал этот жест на рок-концерте. Фанаты переняли его и теперь «коза» очень популярна среди рокеров и металлистов.»
 
Опции темы

  #1
Старый 14.11.2017, 05:11
sergych
Координатор
Досье
 
Аватар для sergych
Релиз Deep Obsession - Infinity


2000 - Deep Obsession - Infinity




Исполнитель/Artist: Deep Obsession
Альбом/Album: Infinity
Год/Year: 1999
Ремастеринг/Remaster: 2000
Жанр/Genre: Euro-dance, pop
Страна/Country: Япония
Рекорд-лейбл/Record label: Universal Music
Номер в каталоге/Catalogue #: MVCE-24212
Формат/Format: Free Lossless Audio Codec (*.flac)
Качество/Quality: Lossless
Тип рипа/RIP Type: image+.cue
Продолжительность/Length: 00:51:11
Источник/Source: Собственный рип
Размер/Size: 453.3 MB

Сканы в комплекте

Треклист

01. One & Only [0:03:29.35]
02. Lost In Love [0:03:15.57]
03. Cold [0:03:17.68]
04. I Surrender [0:04:19.25]
05. Vanishing Man [0:03:36.27]
06. You Got The Feeling [0:03:09.50]
07. Be Real [0:03:53.00]
08. Falling Out Of Love [0:04:03.50]
09. The Power In You [0:04:15.18]
10. Would You ? [0:04:22.67]
11. One & Only (Extended Version) [0:05:01.55]
12. Cold (Extended Version [0:04:26.70]
13. Experience [0:03:58.53]
[свернуть]

youtube.com

[свернуть]

EAC лог

Exact Audio Copy V1.3 from 2. September 2016

EAC extraction logfile from 12. November 2017, 13:33

Deep Obsession / Infinity

Used drive : ATAPI iHAS124 D Adapter: 0 ID: 2

Read mode : Secure
Utilize accurate stream : Yes
Defeat audio cache : Yes
Make use of C2 pointers : No

Read offset correction : 6
Overread into Lead-In and Lead-Out : No
Fill up missing offset samples with silence : Yes
Delete leading and trailing silent blocks : No
Null samples used in CRC calculations : Yes
Used interface : Installed external ASPI interface

Used output format : User Defined Encoder
Selected bitrate : 1024 kBit/s
Quality : High
Add ID3 tag : No
Command line compressor : C:\Program Files (x86)\Exact Audio Copy\Flac\flac.exe
Additional command line options : -6 -V -T "ARTIST=%artist%" -T "TITLE=%title%" -T "ALBUM=%albumtitle%" -T "DATE=%year%" -T "TRACKNUMBER=%tracknr%" -T "GENRE=%genre%" -T "COMMENT=%comment%" -T "BAND=%albuminterpret%" -T "ALBUMARTIST=%albuminterpret%" -T "COMPOSER=%composer%" %haslyrics%--tag-from-file=LYRICS="%lyricsfile%"%haslyrics% -T "DISCNUMBER=%cdnumber%" -T "TOTALDISCS=%totalcds%" -T "TOTALTRACKS=%numtracks%" %hascover%--picture="%coverfile%"%hascover% %source% -o %dest%


TOC of the extracted CD

Track | Start | Length | Start sector | End sector
---------------------------------------------------------
1 | 0:00.00 | 3:29.35 | 0 | 15709
2 | 3:29.35 | 3:15.57 | 15710 | 30391
3 | 6:45.17 | 3:17.68 | 30392 | 45234
4 | 10:03.10 | 4:19.25 | 45235 | 64684
5 | 14:22.35 | 3:36.27 | 64685 | 80911
6 | 17:58.62 | 3:09.50 | 80912 | 95136
7 | 21:08.37 | 3:53.00 | 95137 | 112611
8 | 25:01.37 | 4:03.50 | 112612 | 130886
9 | 29:05.12 | 4:15.18 | 130887 | 150029
10 | 33:20.30 | 4:22.67 | 150030 | 169746
11 | 37:43.22 | 5:01.55 | 169747 | 192376
12 | 42:45.02 | 4:26.70 | 192377 | 212396
13 | 47:11.72 | 3:58.53 | 212397 | 230299


Range status and errors

Selected range

Filename C:\mm\Deep Obsession\2000 - Infinity [MVCE-24212]\Deep Obsession - Infinity.wav

Peak level 100.0 %
Extraction speed 8.3 X
Range quality 99.9 %
Test CRC 0790775A
Copy CRC 0790775A
Copy OK

No errors occurred


AccurateRip summary

Track 1 not present in database
Track 2 not present in database
Track 3 not present in database
Track 4 not present in database
Track 5 not present in database
Track 6 not present in database
Track 7 not present in database
Track 8 not present in database
Track 9 not present in database
Track 10 not present in database
Track 11 not present in database
Track 12 not present in database
Track 13 not present in database

None of the tracks are present in the AccurateRip database

End of status report

---- CUETools DB Plugin V2.1.6

[CTDB TOCID: vI1npVsZIfa3pLWMwRij2Z3MccM-] disk not present in database
Submit result: vI1npVsZIfa3pLWMwRij2Z3MccM- has been uploaded
[свернуть]

Файл CUE

REM GENRE Dance
REM DATE 2000
REM DISCID 940BFE0D
REM COMMENT "ExactAudioCopy v1.3"
PERFORMER "Deep Obsession"
TITLE "Infinity"
REM COMPOSER ""
FILE "Deep Obsession - Infinity.flac" WAVE
TRACK 01 AUDIO
TITLE "One & Only"
PERFORMER "Deep Obsession"
REM COMPOSER ""
INDEX 01 00:00:00
TRACK 02 AUDIO
TITLE "Lost In Love"
PERFORMER "Deep Obsession"
REM COMPOSER ""
INDEX 01 03:29:35
TRACK 03 AUDIO
TITLE "Cold"
PERFORMER "Deep Obsession"
REM COMPOSER ""
INDEX 01 06:45:17
TRACK 04 AUDIO
TITLE "I Surrender"
PERFORMER "Deep Obsession"
REM COMPOSER ""
INDEX 01 10:03:10
TRACK 05 AUDIO
TITLE "Vanishing Man"
PERFORMER "Deep Obsession"
REM COMPOSER ""
INDEX 01 14:22:35
TRACK 06 AUDIO
TITLE "You Got The Feeling"
PERFORMER "Deep Obsession"
REM COMPOSER ""
INDEX 01 17:58:62
TRACK 07 AUDIO
TITLE "Be Real"
PERFORMER "Deep Obsession"
REM COMPOSER ""
INDEX 01 21:08:37
TRACK 08 AUDIO
TITLE "Falling Out Of Love"
PERFORMER "Deep Obsession"
REM COMPOSER ""
INDEX 01 25:01:37
TRACK 09 AUDIO
TITLE "The Power In You"
PERFORMER "Deep Obsession"
REM COMPOSER ""
INDEX 01 29:05:12
TRACK 10 AUDIO
TITLE "Would You ?"
PERFORMER "Deep Obsession"
REM COMPOSER ""
INDEX 01 33:20:30
TRACK 11 AUDIO
TITLE "One & Only (Extended Version)"
PERFORMER "Deep Obsession"
REM COMPOSER ""
INDEX 01 37:43:22
TRACK 12 AUDIO
TITLE "Cold (Extended Version"
PERFORMER "Deep Obsession"
REM COMPOSER ""
INDEX 01 42:45:02
TRACK 13 AUDIO
TITLE "Experience"
PERFORMER "Deep Obsession"
REM COMPOSER ""
INDEX 01 47:11:72
[свернуть]

Лог проверки качества

AUDIOCHECKER v2.0 beta (build 457) - by Dester -
~~~~~~~~~~~~~~~~~~~~~~~~~~~~~~~~~~
-=== НЕ РЕДАКТИРУЙТЕ ЭТОТ ФАЙЛ! ===-

Путь: ...\2000 - Infinity [MVCE-24212]

1 -=- Deep Obsession - Infinity.flac -=- CDDA (99%)

261011572
[свернуть]

Спектр частот

[свернуть]

Скачать Deep Obsession - Infinity



password: sergych
[свернуть]

Контрольная сумма (хеш-сумма) архива

MD5: 0762f2dd0eac52f02ce7c9aa74a87e2a
[свернуть]
My opinion of release: 9/10
__________________
TAIFUN.Wings of Soul

Вверх
2 пользователя(ей) сказали cпасибо:
johnsilver (14.11.2017), swint68 (14.11.2017)
Похожие темы
Тема Автор Раздел Ответов Последнее сообщение
Релиз Shayne Ward - Obsession PUPOKIN Зарубежная Поп-Музыка 0 06.12.2010 10:18
Релиз Tessa Souter - Obsession PUPOKIN Jazz и Blues 0 04.01.2010 09:53
Релиз Andy Caldwell - Obsession PUPOKIN House 0 14.11.2009 12:14
Obsession Lounge 3 PUPOKIN Lo-fi 0 25.12.2008 08:43
Obsession Stanislav1989 Metal [FAQ] 0 07.12.2008 19:01


Метки
1999 , 2000 , deep obsession , euro-dance , infinity , pop

Опции темы

Ваши права в разделе
Вы не можете создавать новые темы
Вы не можете отвечать в темах
Вы не можете прикреплять вложения
Вы не можете редактировать свои сообщения

Быстрый переход



Текущее время: 10:55. Часовой пояс GMT +3.
Powered by vBulletin® Version 3.8.10
Copyright ©2000 - 2018, vBulletin Solutions, Inc. Перевод: zCarot
© 2008 - 2018 Taifun With Song
Яндекс.Метрика