TAIFUN With Song
Навигация
А знаете ли Вы, что...
Какой пианист играл одной левой?
«Австрийский пианист Пауль Витгенштейн потерял правую руку в Первой Мировой войне, однако возобновил концертную карьеру и достиг исключительного мастерства, играя одной левой. Виртуозное владение пианистической техникой позволило Витгенштейну успешно исполнять сочинения, сопоставимые по сложности даже для пианиста с двумя руками.»
 
Опции темы

  #1
Старый 11.11.2017, 07:53
sergych
Координатор
Досье
 
Аватар для sergych
Релиз Paul Young - The Crossing


1993 - Paul Young - The Crossing




Исполнитель/Artist: Paul Young
Альбом/Album: The Crossing
Год/Year: 1993
Жанр/Genre: pop, soul
Страна/Country: Австрия
Рекорд-лейбл/Record label: Sony Music
Номер в каталоге/Catalogue #: 473928 2
Формат/Format: Free Lossless Audio Codec (*.flac)
Качество/Quality: Lossless
Тип рипа/RIP Type: image+.cue
Продолжительность/Length: 00:49:44
Источник/Source: Собственный рип
Размер/Size: 425.7 MB

Сканы в комплекте

Треклист

01. Hope In A Hopeless World [0:04:19.50]
02. Now I Know What Made Otis Blue [0:04:00.10]
03. Bring Me Home [0:04:03.55]
04. The Heart Is A Lonely Hunter [0:04:21.32]
05. Won't Look Back [0:05:23.53]
06. Only Game In Town [0:04:20.45]
07. Love Has No Pride [0:03:46.27]
08. Down In Chinatown [0:05:36.18]
09. Half A Step Away [0:05:00.47]
10. Follow On [0:04:10.10]
11. It Will Be You [0:04:41.35]
[свернуть]

youtube.com

[свернуть]

EAC лог

Exact Audio Copy V1.3 from 2. September 2016

EAC extraction logfile from 9. November 2017, 20:50

Paul Young / The Crossing

Used drive : ATAPI iHAS124 D Adapter: 0 ID: 2

Read mode : Secure
Utilize accurate stream : Yes
Defeat audio cache : Yes
Make use of C2 pointers : No

Read offset correction : 6
Overread into Lead-In and Lead-Out : No
Fill up missing offset samples with silence : Yes
Delete leading and trailing silent blocks : No
Null samples used in CRC calculations : Yes
Used interface : Installed external ASPI interface

Used output format : User Defined Encoder
Selected bitrate : 1024 kBit/s
Quality : High
Add ID3 tag : No
Command line compressor : C:\Program Files (x86)\Exact Audio Copy\Flac\flac.exe
Additional command line options : -6 -V -T "ARTIST=%artist%" -T "TITLE=%title%" -T "ALBUM=%albumtitle%" -T "DATE=%year%" -T "TRACKNUMBER=%tracknr%" -T "GENRE=%genre%" -T "COMMENT=%comment%" -T "BAND=%albuminterpret%" -T "ALBUMARTIST=%albuminterpret%" -T "COMPOSER=%composer%" %haslyrics%--tag-from-file=LYRICS="%lyricsfile%"%haslyrics% -T "DISCNUMBER=%cdnumber%" -T "TOTALDISCS=%totalcds%" -T "TOTALTRACKS=%numtracks%" %hascover%--picture="%coverfile%"%hascover% %source% -o %dest%


TOC of the extracted CD

Track | Start | Length | Start sector | End sector
---------------------------------------------------------
1 | 0:00.00 | 4:19.50 | 0 | 19474
2 | 4:19.50 | 4:00.10 | 19475 | 37484
3 | 8:19.60 | 4:03.55 | 37485 | 55764
4 | 12:23.40 | 4:21.32 | 55765 | 75371
5 | 16:44.72 | 5:23.53 | 75372 | 99649
6 | 22:08.50 | 4:20.45 | 99650 | 119194
7 | 26:29.20 | 3:46.27 | 119195 | 136171
8 | 30:15.47 | 5:36.18 | 136172 | 161389
9 | 35:51.65 | 5:00.47 | 161390 | 183936
10 | 40:52.37 | 4:10.10 | 183937 | 202696
11 | 45:02.47 | 4:41.35 | 202697 | 223806


Range status and errors

Selected range

Filename C:\mm\Paul Young\1993 - The Crossing [473928 2]\Paul Young - The Crossing.wav

Peak level 100.0 %
Extraction speed 8.4 X
Range quality 100.0 %
Test CRC 958E8897
Copy CRC 958E8897
Copy OK

No errors occurred


AccurateRip summary

Track 1 accurately ripped (confidence 63) [573FE251] (AR v2)
Track 2 accurately ripped (confidence 64) [89748BBF] (AR v2)
Track 3 accurately ripped (confidence 63) [88FAA4F7] (AR v2)
Track 4 accurately ripped (confidence 63) [2C337C83] (AR v2)
Track 5 accurately ripped (confidence 64) [87FD0347] (AR v2)
Track 6 accurately ripped (confidence 63) [D7226264] (AR v2)
Track 7 accurately ripped (confidence 63) [063D2D13] (AR v2)
Track 8 accurately ripped (confidence 64) [A739120A] (AR v2)
Track 9 accurately ripped (confidence 63) [C7B2672E] (AR v2)
Track 10 accurately ripped (confidence 63) [AE3F78E8] (AR v2)
Track 11 accurately ripped (confidence 63) [BC984D4A] (AR v2)

All tracks accurately ripped

End of status report

---- CUETools DB Plugin V2.1.6

[CTDB TOCID: XCNEArO.ps8m0rcUEBkHD4xGif0-] found
Submit result: XCNEArO.ps8m0rcUEBkHD4xGif0- has been confirmed
Track | CTDB Status
1 | (135/138) Accurately ripped
2 | (135/138) Accurately ripped
3 | (136/138) Accurately ripped
4 | (135/138) Accurately ripped
5 | (135/138) Accurately ripped
6 | (137/138) Accurately ripped
7 | (135/138) Accurately ripped
8 | (136/138) Accurately ripped
9 | (136/138) Accurately ripped
10 | (136/138) Accurately ripped
11 | (136/138) Accurately ripped
[свернуть]

Файл CUE

REM GENRE Pop/Rock
REM DATE 1993
REM DISCID 770BA80B
REM COMMENT "ExactAudioCopy v1.3"
PERFORMER "Paul Young"
TITLE "The Crossing"
REM COMPOSER ""
FILE "Paul Young - The Crossing.flac" WAVE
TRACK 01 AUDIO
TITLE "Hope In A Hopeless World"
PERFORMER "Paul Young"
REM COMPOSER ""
INDEX 01 00:00:00
TRACK 02 AUDIO
TITLE "Now I Know What Made Otis Blue"
PERFORMER "Paul Young"
REM COMPOSER ""
INDEX 00 04:19:05
INDEX 01 04:19:50
TRACK 03 AUDIO
TITLE "Bring Me Home"
PERFORMER "Paul Young"
REM COMPOSER ""
INDEX 00 08:19:27
INDEX 01 08:19:60
TRACK 04 AUDIO
TITLE "The Heart Is A Lonely Hunter"
PERFORMER "Paul Young"
REM COMPOSER ""
INDEX 00 12:22:57
INDEX 01 12:23:40
TRACK 05 AUDIO
TITLE "Won't Look Back"
PERFORMER "Paul Young"
REM COMPOSER ""
INDEX 00 16:43:60
INDEX 01 16:44:72
TRACK 06 AUDIO
TITLE "Only Game In Town"
PERFORMER "Paul Young"
REM COMPOSER ""
INDEX 01 22:08:50
TRACK 07 AUDIO
TITLE "Love Has No Pride"
PERFORMER "Paul Young"
REM COMPOSER ""
INDEX 00 26:27:05
INDEX 01 26:29:20
TRACK 08 AUDIO
TITLE "Down In Chinatown"
PERFORMER "Paul Young"
REM COMPOSER ""
INDEX 00 30:15:12
INDEX 01 30:15:47
TRACK 09 AUDIO
TITLE "Half A Step Away"
PERFORMER "Paul Young"
REM COMPOSER ""
INDEX 00 35:50:12
INDEX 01 35:51:65
TRACK 10 AUDIO
TITLE "Follow On"
PERFORMER "Paul Young"
REM COMPOSER ""
INDEX 00 40:51:55
INDEX 01 40:52:37
TRACK 11 AUDIO
TITLE "It Will Be You"
PERFORMER "Paul Young"
REM COMPOSER ""
INDEX 00 45:02:00
INDEX 01 45:02:47
[свернуть]

Лог проверки качества

AUDIOCHECKER v2.0 beta (build 457) - by Dester -
~~~~~~~~~~~~~~~~~~~~~~~~~~~~~~~~~~
-=== НЕ РЕДАКТИРУЙТЕ ЭТОТ ФАЙЛ! ===-

Путь: ...\1993 - The Crossing [473928 2]

1 -=- Paul Young - The Crossing.flac -=- CDDA (100%)

53793556
[свернуть]

Спектр частот

[свернуть]

Скачать Paul Young - The Crossing



password: sergych
[свернуть]

Контрольная сумма (хеш-сумма) архива

MD5: 2c14c1b157b3e32ebbe472eb268697d5
[свернуть]
My opinion of release: 10/10
__________________
TAIFUN.Wings of Soul

Вверх
Пользователь сказал cпасибо:
swint68 (11.11.2017)
Похожие темы
Тема Автор Раздел Ответов Последнее сообщение
Релиз Crossing Avery - The Way We Live PUPOKIN Country 0 09.08.2016 12:09
Релиз Paul Young – Good Thing PUPOKIN Зарубежная Поп-Музыка 0 15.04.2016 16:12
Сингл Zucchero & Paul Young - Senza Una Donna (Without A Woman) sergych Pop Rock 0 10.10.2014 23:09
Сборник Paul Young - From Time To Time. The Singles Collection sergych Зарубежная Поп-Музыка 0 28.07.2014 07:47
Релиз Crossing Edge - Of Ghosts and Enemies PUPOKIN Power Metal 0 19.11.2012 09:37


Метки
1993 , paul young , pop , soul , the crossing

Опции темы

Ваши права в разделе
Вы не можете создавать новые темы
Вы не можете отвечать в темах
Вы не можете прикреплять вложения
Вы не можете редактировать свои сообщения

Быстрый переход



Текущее время: 18:11. Часовой пояс GMT +3.
Powered by vBulletin® Version 3.8.10
Copyright ©2000 - 2018, vBulletin Solutions, Inc. Перевод: zCarot
© 2008 - 2018 Taifun With Song
Яндекс.Метрика