TAIFUN With Song
Навигация
R&B Ссылки на музыку в этом стиле

А знаете ли Вы, что...
Какая опера на произведение немецкого классика дала музыку самой известной пионерской песне?
«Музыка к пионерской песне «Взвейтесь кострами, синие ночи» написана на основе «Марша солдат» из оперы Шарля Гуно «Фауст».»
 
Опции темы

  #1
Старый 20.10.2017, 23:54
sergych
Координатор
Досье
 
Аватар для sergych
Релиз Luther Vandross - Any Love


1988 - Luther Vandross - Any Love




Исполнитель/Artist: Luther Vandross
Альбом/Album: Any Love
Год/Year: 1988
Жанр/Genre: R&B, soul, pop
Страна/Country: Австрия
Рекорд-лейбл/Record label: EPIC
Номер в каталоге/Catalogue #: EPC 462908 2
Формат/Format: Free Lossless Audio Codec (*.flac)
Качество/Quality: Lossless
Тип рипа/RIP Type: image+.cue
Продолжительность/Length: 00:48:14
Источник/Source: Собственный рип
Размер/Size: 320.2 MB

Сканы в комплекте

Треклист

01. I Wonder [0:05:12.32]
02. She Won't Talk To Me [0:04:37.00]
03. I Know You Want To [0:04:30.43]
04. Come Back [0:04:16.20]
05. Any Love [0:05:05.22]
06. Love Won't Let Me Wait [0:07:19.23]
07. Are You Gonna Love Me [0:05:10.65]
08. For You To Love [0:05:39.52]
09. The Second Time Around [0:06:23.05]
[свернуть]

youtube.com

[свернуть]

Исполнители/Performers

Luther Vandross - vocals
Paul Jackson Jr., Doc Powell - guitar
Marcus Miller - bass, keyboards, synthesizer
Nat Adderley Jr. - keyboards, synthesizer
David Gamson - synthesizer
Buddy Williams - drums
Paulinho da Costa - percussion
Kirk Whalum - saxophone on "Love Won't Let Me Wait"
George Young - saxophone on "The Second Time Around"
Amy Knoles - timpani on "Love Won't Let Me Wait"
Alan Rubin, Dave Tofani, Harold Jones, Homer Mensch, Jerome Ashby, Jon Faddis, Peter Gordon, Randy Brecker - horns
Darryl Tookes, David Lasley, James Ingram, Kevin Owens, Lisa Fischer, Mark Stevens, Paulette McWilliams, Michael Lovesmith, Brenda White King, Cissy Houston, Fonzi Thornton, Tawatha Agee - backing vocals
[свернуть]

EAC лог

Exact Audio Copy V1.3 from 2. September 2016

EAC extraction logfile from 19. October 2017, 8:07

Luther Vandross / Any Love

Used drive : ATAPI iHAS124 D Adapter: 0 ID: 2

Read mode : Secure
Utilize accurate stream : Yes
Defeat audio cache : Yes
Make use of C2 pointers : No

Read offset correction : 6
Overread into Lead-In and Lead-Out : No
Fill up missing offset samples with silence : Yes
Delete leading and trailing silent blocks : No
Null samples used in CRC calculations : Yes
Used interface : Installed external ASPI interface

Used output format : User Defined Encoder
Selected bitrate : 1024 kBit/s
Quality : High
Add ID3 tag : No
Command line compressor : C:\Program Files (x86)\Exact Audio Copy\Flac\flac.exe
Additional command line options : -6 -V -T "ARTIST=%artist%" -T "TITLE=%title%" -T "ALBUM=%albumtitle%" -T "DATE=%year%" -T "TRACKNUMBER=%tracknr%" -T "GENRE=%genre%" -T "COMMENT=%comment%" -T "BAND=%albuminterpret%" -T "ALBUMARTIST=%albuminterpret%" -T "COMPOSER=%composer%" %haslyrics%--tag-from-file=LYRICS="%lyricsfile%"%haslyrics% -T "DISCNUMBER=%cdnumber%" -T "TOTALDISCS=%totalcds%" -T "TOTALTRACKS=%numtracks%" %hascover%--picture="%coverfile%"%hascover% %source% -o %dest%


TOC of the extracted CD

Track | Start | Length | Start sector | End sector
---------------------------------------------------------
1 | 0:00.00 | 5:12.32 | 0 | 23431
2 | 5:12.32 | 4:37.00 | 23432 | 44206
3 | 9:49.32 | 4:30.43 | 44207 | 64499
4 | 14:20.00 | 4:16.20 | 64500 | 83719
5 | 18:36.20 | 5:05.22 | 83720 | 106616
6 | 23:41.42 | 7:19.23 | 106617 | 139564
7 | 31:00.65 | 5:10.65 | 139565 | 162879
8 | 36:11.55 | 5:39.52 | 162880 | 188356
9 | 41:51.32 | 6:23.05 | 188357 | 217086


Range status and errors

Selected range

Filename C:\mm\Luther Vandross\1988 - Any Love [EPC 462908 2]\Luther Vandross - Any Love.wav

Peak level 100.0 %
Extraction speed 8.4 X
Range quality 100.0 %
Test CRC 9AEE9C59
Copy CRC 9AEE9C59
Copy OK

No errors occurred


AccurateRip summary

Track 1 accurately ripped (confidence 31) [258AA8EC] (AR v2)
Track 2 accurately ripped (confidence 31) [54044A71] (AR v2)
Track 3 accurately ripped (confidence 31) [C40C96DA] (AR v2)
Track 4 accurately ripped (confidence 31) [8A33CC06] (AR v2)
Track 5 accurately ripped (confidence 31) [0F3E3D8E] (AR v2)
Track 6 accurately ripped (confidence 31) [F2646A90] (AR v2)
Track 7 accurately ripped (confidence 30) [48AF38F6] (AR v2)
Track 8 accurately ripped (confidence 31) [0EAB8F0C] (AR v2)
Track 9 accurately ripped (confidence 31) [99DDA3A5] (AR v2)

All tracks accurately ripped

End of status report

---- CUETools DB Plugin V2.1.6

[CTDB TOCID: eiiMD9L5MxU72ECCRDwMJULDucc-] found
Submit result: eiiMD9L5MxU72ECCRDwMJULDucc- has been confirmed
Track | CTDB Status
1 | (45/45) Accurately ripped
2 | (45/45) Accurately ripped
3 | (45/45) Accurately ripped
4 | (45/45) Accurately ripped
5 | (45/45) Accurately ripped
6 | (45/45) Accurately ripped
7 | (44/45) Accurately ripped
8 | (45/45) Accurately ripped
9 | (44/45) Accurately ripped
[свернуть]

Файл CUE

REM GENRE R&B
REM DATE 1988
REM DISCID 670B4E09
REM COMMENT "ExactAudioCopy v1.3"
PERFORMER "Luther Vandross"
TITLE "Any Love"
REM COMPOSER ""
FILE "Luther Vandross - Any Love.flac" WAVE
TRACK 01 AUDIO
TITLE "I Wonder"
PERFORMER "Luther Vandross"
REM COMPOSER ""
INDEX 01 00:00:00
TRACK 02 AUDIO
TITLE "She Won't Talk To Me"
PERFORMER "Luther Vandross"
REM COMPOSER ""
INDEX 00 05:11:25
INDEX 01 05:12:32
TRACK 03 AUDIO
TITLE "I Know You Want To"
PERFORMER "Luther Vandross"
REM COMPOSER ""
INDEX 00 09:48:62
INDEX 01 09:49:32
TRACK 04 AUDIO
TITLE "Come Back"
PERFORMER "Luther Vandross"
REM COMPOSER ""
INDEX 00 14:16:10
INDEX 01 14:20:00
TRACK 05 AUDIO
TITLE "Any Love"
PERFORMER "Luther Vandross"
REM COMPOSER ""
INDEX 00 18:34:25
INDEX 01 18:36:20
TRACK 06 AUDIO
TITLE "Love Won't Let Me Wait"
PERFORMER "Luther Vandross"
REM COMPOSER ""
INDEX 00 23:39:00
INDEX 01 23:41:42
TRACK 07 AUDIO
TITLE "Are You Gonna Love Me"
PERFORMER "Luther Vandross"
REM COMPOSER ""
INDEX 00 31:00:27
INDEX 01 31:00:65
TRACK 08 AUDIO
TITLE "For You To Love"
PERFORMER "Luther Vandross"
REM COMPOSER ""
INDEX 00 36:11:10
INDEX 01 36:11:55
TRACK 09 AUDIO
TITLE "The Second Time Around"
PERFORMER "Luther Vandross"
REM COMPOSER ""
INDEX 00 41:49:37
INDEX 01 41:51:32
[свернуть]

Лог проверки качества

AUDIOCHECKER v2.0 beta (build 457) - by Dester -
~~~~~~~~~~~~~~~~~~~~~~~~~~~~~~~~~~
-=== НЕ РЕДАКТИРУЙТЕ ЭТОТ ФАЙЛ! ===-

Путь: ...\1988 - Any Love [EPC 462908 2]

1 -=- Luther Vandross - Any Love.flac -=- CDDA (100%)

41256116
[свернуть]

Спектр частот

[свернуть]

Скачать Luther Vandross - Any Love



password: sergych
[свернуть]

Контрольная сумма (хеш-сумма) архива

MD5: 628b7d2f9adc4659f33708db8212ef7a
[свернуть]
My opinion of release: 10/10
__________________
TAIFUN.Wings of Soul

Вверх
Пользователь сказал cпасибо:
johnsilver (22.10.2017)
Похожие темы
Тема Автор Раздел Ответов Последнее сообщение
Релиз David Hidalgo, Luther Dickinson, Mato Nanji - 3 Skulls & The Truth PUPOKIN Jazz и Blues 0 04.10.2012 09:05
Альбом Zodiac Mindwarp And The Love Reaction - High Priest Of Love PUPOKIN Hard Rock 0 21.08.2010 08:46
Альбом Luther Allison - Rich Man PUPOKIN Jazz и Blues 0 22.05.2009 09:43
Релиз Luther Kent - The Bobby Bland Songbook PUPOKIN Jazz и Blues 0 11.05.2009 09:33
Релиз Luther Vandross - Lovesongs PUPOKIN R&B 0 31.01.2009 12:02


Метки
1988 , any love , luther vandross , pop , r&b , soul

Опции темы

Ваши права в разделе
Вы не можете создавать новые темы
Вы не можете отвечать в темах
Вы не можете прикреплять вложения
Вы не можете редактировать свои сообщения

Быстрый переход



Текущее время: 21:44. Часовой пояс GMT +3.
Powered by vBulletin® Version 3.8.10
Copyright ©2000 - 2018, vBulletin Solutions, Inc. Перевод: zCarot
© 2008 - 2018 Taifun With Song
Яндекс.Метрика