TAIFUN With Song
Навигация
Вернуться   TAIFUN With Song > Music (обменник) > POP > Зарубежная Поп-Музыка
Расширенный поиск
А знаете ли Вы, что...
Какой сюрприз преподнесла группа Muse, когда её вынудили играть под фонограмму?
«Однажды группу Muse пригласили выступать на итальянском телевидении, но вынудили делать это под фонограмму. Музыканты не стали бойкотировать выступление. но поменялись ролями. Солист и гитарист Мэттью Беллами сел за ударные, ударник Доминик Ховард встал с бас-гитарой за микрофон, а бас-гитарист Крис Уолстенхолм взял гитару и встал за клавишные. А после исполнения песни ударник ещё и ответил на вопросы в качестве фронтмена.»
 
Опции темы

  #1
Старый 15.10.2017, 13:59
sergych
Координатор
Досье
 
Аватар для sergych
Релиз Marie Laforêt - Ses Grands Succes


1988(2001) - Marie Laforêt - Ses Grands Succes




Исполнитель/Artist: Marie Laforêt
Альбом/Album: Ses Grands Succes {The Best of}
Год/Year: 1988
Ремастеринг/Remaster: 2001
Жанр/Genre: chanson, pop
Страна/Country: Германия
Рекорд-лейбл/Record label: Musidisc / Accord
Номер в каталоге/Catalogue #: 153 403-2
Формат/Format: Free Lossless Audio Codec (*.flac)
Качество/Quality: Lossless
Тип рипа/RIP Type: image+.cue
Продолжительность/Length: 01:01:08
Источник/Source: Собственный рип
Размер/Size: 354.1 MB

Сканы в комплекте

Треклист

01. Les Vendanges De L'amour [0:02:38.67]
02. Katy Cruelle [0:02:30.18]
03. La Tendresse [0:02:23.30]
04. A Demain My Darling [0:02:29.22]
05. Tom [0:02:11.50]
06. Sébastion [0:02:24.40]
07. Viens Sur La Montagne [0:02:28.30]
08. Mon Amour Mon Ami [0:02:21.45]
09. Le Lit De Lola [0:02:49.23]
10. Marie Douceur - Marie Colère [0:02:54.37]
11. Qu'y-A-T-Il De Changé [0:02:10.20]
12. Je Voudrais Tant Que Tu Comprennes [0:03:28.08]
13. Je Suis Folle De Vous [0:02:07.35]
14. Viens [0:02:46.12]
15. La Bague Au Doigt [0:02:43.00]
16. Manchester Et Liverpool [0:02:22.45]
17. Ivan, Boris Et Moi [0:02:18.45]
18. L'orage [0:02:18.48]
19. Que Calor La Vida [0:02:27.25]
20. Julie Crève Coeur [0:02:16.35]
21. La Flûte Magique [0:03:17.60]
22. Qu'est-Ce Qui Fait Pleurer Les Filles [0:02:39.45]
23. La Plage [0:02:56.67]
24. Les Noces De Campagne [0:02:02.68]
[свернуть]

youtube.com

[свернуть]

EAC лог

Exact Audio Copy V1.3 from 2. September 2016

EAC extraction logfile from 15. October 2017, 5:03

Marie Laforêt / Ses Grands Succes

Used drive : ATAPI iHAS124 D Adapter: 0 ID: 2

Read mode : Secure
Utilize accurate stream : Yes
Defeat audio cache : Yes
Make use of C2 pointers : No

Read offset correction : 6
Overread into Lead-In and Lead-Out : No
Fill up missing offset samples with silence : Yes
Delete leading and trailing silent blocks : No
Null samples used in CRC calculations : Yes
Used interface : Installed external ASPI interface

Used output format : User Defined Encoder
Selected bitrate : 1024 kBit/s
Quality : High
Add ID3 tag : No
Command line compressor : C:\Program Files (x86)\Exact Audio Copy\Flac\flac.exe
Additional command line options : -6 -V -T "ARTIST=%artist%" -T "TITLE=%title%" -T "ALBUM=%albumtitle%" -T "DATE=%year%" -T "TRACKNUMBER=%tracknr%" -T "GENRE=%genre%" -T "COMMENT=%comment%" -T "BAND=%albuminterpret%" -T "ALBUMARTIST=%albuminterpret%" -T "COMPOSER=%composer%" %haslyrics%--tag-from-file=LYRICS="%lyricsfile%"%haslyrics% -T "DISCNUMBER=%cdnumber%" -T "TOTALDISCS=%totalcds%" -T "TOTALTRACKS=%numtracks%" %hascover%--picture="%coverfile%"%hascover% %source% -o %dest%


TOC of the extracted CD

Track | Start | Length | Start sector | End sector
---------------------------------------------------------
1 | 0:00.33 | 2:38.67 | 33 | 11949
2 | 2:39.25 | 2:30.18 | 11950 | 23217
3 | 5:09.43 | 2:23.30 | 23218 | 33972
4 | 7:32.73 | 2:29.22 | 33973 | 45169
5 | 10:02.20 | 2:11.50 | 45170 | 55044
6 | 12:13.70 | 2:24.40 | 55045 | 65884
7 | 14:38.35 | 2:28.30 | 65885 | 77014
8 | 17:06.65 | 2:21.45 | 77015 | 87634
9 | 19:28.35 | 2:49.23 | 87635 | 100332
10 | 22:17.58 | 2:54.37 | 100333 | 113419
11 | 25:12.20 | 2:10.20 | 113420 | 123189
12 | 27:22.40 | 3:28.08 | 123190 | 138797
13 | 30:50.48 | 2:07.35 | 138798 | 148357
14 | 32:58.08 | 2:46.12 | 148358 | 160819
15 | 35:44.20 | 2:43.00 | 160820 | 173044
16 | 38:27.20 | 2:22.45 | 173045 | 183739
17 | 40:49.65 | 2:18.45 | 183740 | 194134
18 | 43:08.35 | 2:18.48 | 194135 | 204532
19 | 45:27.08 | 2:27.25 | 204533 | 215582
20 | 47:54.33 | 2:16.35 | 215583 | 225817
21 | 50:10.68 | 3:17.60 | 225818 | 240652
22 | 53:28.53 | 2:39.45 | 240653 | 252622
23 | 56:08.23 | 2:56.67 | 252623 | 265889
24 | 59:05.15 | 2:02.68 | 265890 | 275107


Range status and errors

Selected range

Filename C:\mm\Marie Laforet\2001 - Ses Grands Succes [153 403-2]\Marie Laforet - Ses Grands Succes.wav

Peak level 98.3 %
Extraction speed 9.5 X
Range quality 100.0 %
Test CRC 900606E0
Copy CRC 900606E0
Copy OK

No errors occurred


AccurateRip summary

Track 1 cannot be verified as accurate (confidence 5) [A2144BE2], AccurateRip returned [1A7DF8C9] (AR v2)
Track 2 cannot be verified as accurate (confidence 5) [24B68962], AccurateRip returned [8794D975] (AR v2)
Track 3 cannot be verified as accurate (confidence 5) [04BB6359], AccurateRip returned [BE5FFD26] (AR v2)
Track 4 cannot be verified as accurate (confidence 5) [36F459D2], AccurateRip returned [43A9D8EB] (AR v2)
Track 5 cannot be verified as accurate (confidence 5) [C5517996], AccurateRip returned [CF5CAA8C] (AR v2)
Track 6 cannot be verified as accurate (confidence 5) [20FB03C4], AccurateRip returned [2D4E9FF4] (AR v2)
Track 7 cannot be verified as accurate (confidence 5) [9133A75D], AccurateRip returned [22D02819] (AR v2)
Track 8 cannot be verified as accurate (confidence 5) [3ED3E5AC], AccurateRip returned [3206C542] (AR v2)
Track 9 cannot be verified as accurate (confidence 5) [53FF1B98], AccurateRip returned [5EB52CF3] (AR v2)
Track 10 cannot be verified as accurate (confidence 5) [BC3583DC], AccurateRip returned [75B1453A] (AR v2)
Track 11 cannot be verified as accurate (confidence 5) [F7E4EF9D], AccurateRip returned [E55F0798] (AR v2)
Track 12 cannot be verified as accurate (confidence 5) [E5772691], AccurateRip returned [52EC9821] (AR v2)
Track 13 cannot be verified as accurate (confidence 5) [8C014830], AccurateRip returned [2BBBED8D] (AR v2)
Track 14 cannot be verified as accurate (confidence 5) [1B23A5FD], AccurateRip returned [4AEB7519] (AR v2)
Track 15 cannot be verified as accurate (confidence 5) [C43747C4], AccurateRip returned [F8AEDEF4] (AR v2)
Track 16 cannot be verified as accurate (confidence 5) [12E4326D], AccurateRip returned [6413377B] (AR v2)
Track 17 cannot be verified as accurate (confidence 5) [26D147FC], AccurateRip returned [C9FC6CDA] (AR v2)
Track 18 cannot be verified as accurate (confidence 5) [64EC1517], AccurateRip returned [E98C24E1] (AR v2)
Track 19 cannot be verified as accurate (confidence 5) [D8E638E8], AccurateRip returned [F458CD5C] (AR v2)
Track 20 cannot be verified as accurate (confidence 5) [5BF6952B], AccurateRip returned [91AF7AE7] (AR v2)
Track 21 cannot be verified as accurate (confidence 5) [2D34794B], AccurateRip returned [FDDCF79F] (AR v2)
Track 22 cannot be verified as accurate (confidence 5) [8501A585], AccurateRip returned [AEEF99FE] (AR v2)
Track 23 cannot be verified as accurate (confidence 5) [96847A8A], AccurateRip returned [E5E52C9B] (AR v2)
Track 24 cannot be verified as accurate (confidence 5) [732CB80F], AccurateRip returned [8B59CFE9] (AR v2)

No tracks could be verified as accurate
You may have a different pressing from the one(s) in the database

End of status report

---- CUETools DB Plugin V2.1.6

[CTDB TOCID: dyP4dCQwbvL6f7_Z3MrQL_JOOww-] found
Submit result: dyP4dCQwbvL6f7_Z3MrQL_JOOww- has been confirmed
Track | CTDB Status
1 | (10/10) Accurately ripped
2 | (10/10) Accurately ripped
3 | (10/10) Accurately ripped
4 | (10/10) Accurately ripped
5 | (10/10) Accurately ripped
6 | (10/10) Accurately ripped
7 | (10/10) Accurately ripped
8 | (10/10) Accurately ripped
9 | (10/10) Accurately ripped
10 | (10/10) Accurately ripped
11 | (10/10) Accurately ripped
12 | ( 8/10) Accurately ripped, or (2/10) differs in 3 samples @02:21:01
13 | (10/10) Accurately ripped
14 | (10/10) Accurately ripped
15 | (10/10) Accurately ripped
16 | (10/10) Accurately ripped
17 | (10/10) Accurately ripped
18 | (10/10) Accurately ripped
19 | (10/10) Accurately ripped
20 | (10/10) Accurately ripped
21 | (10/10) Accurately ripped
22 | (10/10) Accurately ripped
23 | (10/10) Accurately ripped
24 | (10/10) Accurately ripped
[свернуть]

Файл CUE

REM GENRE Pop
REM DATE 1988
REM DISCID 340E5418
REM COMMENT "ExactAudioCopy v1.3"
PERFORMER "Marie Laforet"
TITLE "Ses Grands Succes"
REM COMPOSER ""
FILE "Marie Laforet - Ses Grands Succes.flac" WAVE
TRACK 01 AUDIO
TITLE "Les Vendanges De L'amour"
PERFORMER "Marie Laforet"
REM COMPOSER ""
INDEX 00 00:00:00
INDEX 01 00:00:33
TRACK 02 AUDIO
TITLE "Katy Cruelle"
PERFORMER "Marie Laforet"
REM COMPOSER ""
INDEX 00 02:35:20
INDEX 01 02:39:25
TRACK 03 AUDIO
TITLE "La Tendresse"
PERFORMER "Marie Laforet"
REM COMPOSER ""
INDEX 00 05:07:33
INDEX 01 05:09:43
TRACK 04 AUDIO
TITLE "A Demain My Darling"
PERFORMER "Marie Laforet"
REM COMPOSER ""
INDEX 00 07:29:35
INDEX 01 07:32:73
TRACK 05 AUDIO
TITLE "Tom"
PERFORMER "Marie Laforet"
REM COMPOSER ""
INDEX 00 09:58:58
INDEX 01 10:02:20
TRACK 06 AUDIO
TITLE "Sebastion"
PERFORMER "Marie Laforet"
REM COMPOSER ""
INDEX 00 12:09:58
INDEX 01 12:13:70
TRACK 07 AUDIO
TITLE "Viens Sur La Montagne"
PERFORMER "Marie Laforet"
REM COMPOSER ""
INDEX 00 14:33:70
INDEX 01 14:38:35
TRACK 08 AUDIO
TITLE "Mon Amour Mon Ami"
PERFORMER "Marie Laforet"
REM COMPOSER ""
INDEX 00 17:02:58
INDEX 01 17:06:65
TRACK 09 AUDIO
TITLE "Le Lit De Lola"
PERFORMER "Marie Laforet"
REM COMPOSER ""
INDEX 00 19:25:70
INDEX 01 19:28:35
TRACK 10 AUDIO
TITLE "Marie Douceur - Marie Colere"
PERFORMER "Marie Laforet"
REM COMPOSER ""
INDEX 00 22:13:70
INDEX 01 22:17:58
TRACK 11 AUDIO
TITLE "Qu'y-A-T-Il De Change"
PERFORMER "Marie Laforet"
REM COMPOSER ""
INDEX 00 25:08:70
INDEX 01 25:12:20
TRACK 12 AUDIO
TITLE "Je Voudrais Tant Que Tu Comprennes"
PERFORMER "Marie Laforet"
REM COMPOSER ""
INDEX 00 27:18:65
INDEX 01 27:22:40
TRACK 13 AUDIO
TITLE "Je Suis Folle De Vous"
PERFORMER "Marie Laforet"
REM COMPOSER ""
INDEX 00 30:48:23
INDEX 01 30:50:48
TRACK 14 AUDIO
TITLE "Viens"
PERFORMER "Marie Laforet"
REM COMPOSER ""
INDEX 00 32:57:43
INDEX 01 32:58:08
TRACK 15 AUDIO
TITLE "La Bague Au Doigt"
PERFORMER "Marie Laforet"
REM COMPOSER ""
INDEX 00 35:42:70
INDEX 01 35:44:20
TRACK 16 AUDIO
TITLE "Manchester Et Liverpool"
PERFORMER "Marie Laforet"
REM COMPOSER ""
INDEX 00 38:27:08
INDEX 01 38:27:20
TRACK 17 AUDIO
TITLE "Ivan, Boris Et Moi"
PERFORMER "Marie Laforet"
REM COMPOSER ""
INDEX 00 40:49:45
INDEX 01 40:49:65
TRACK 18 AUDIO
TITLE "L'orage"
PERFORMER "Marie Laforet"
REM COMPOSER ""
INDEX 00 43:07:33
INDEX 01 43:08:35
TRACK 19 AUDIO
TITLE "Que Calor La Vida"
PERFORMER "Marie Laforet"
REM COMPOSER ""
INDEX 00 45:25:08
INDEX 01 45:27:08
TRACK 20 AUDIO
TITLE "Julie Creve Coeur"
PERFORMER "Marie Laforet"
REM COMPOSER ""
INDEX 00 47:22:12
INDEX 01 47:54:33
TRACK 21 AUDIO
TITLE "La Flute Magique"
PERFORMER "Marie Laforet"
REM COMPOSER ""
INDEX 00 50:09:28
INDEX 01 50:10:68
TRACK 22 AUDIO
TITLE "Qu'est-Ce Qui Fait Pleurer Les Filles"
PERFORMER "Marie Laforet"
REM COMPOSER ""
INDEX 00 53:26:34
INDEX 01 53:28:53
TRACK 23 AUDIO
TITLE "La Plage"
PERFORMER "Marie Laforet"
REM COMPOSER ""
INDEX 00 56:06:20
INDEX 01 56:08:23
TRACK 24 AUDIO
TITLE "Les Noces De Campagne"
PERFORMER "Marie Laforet"
REM COMPOSER ""
INDEX 00 59:03:58
INDEX 01 59:05:15
[свернуть]

Лог проверки качества

AUDIOCHECKER v2.0 beta (build 457) - by Dester -
~~~~~~~~~~~~~~~~~~~~~~~~~~~~~~~~~~
-=== НЕ РЕДАКТИРУЙТЕ ЭТОТ ФАЙЛ! ===-

Путь: ...\2001 - Ses Grands Succes [153 403-2]

1 -=- Marie Laforet - Ses Grands Succes.flac -=- CDDA (100%)

251685812
[свернуть]

Спектр частот

[свернуть]

Скачать Marie Laforêt - Ses Grands Succes



password: sergych
[свернуть]

Контрольная сумма (хеш-сумма) архива

MD5: ea734166ad40406861a8ca2138ee9ba4
[свернуть]
My opinion of release: 9/10
__________________
TAIFUN.Wings of Soul


Последний раз редактировалось sergych, 16.10.2017 в 18:21. Причина: перезаливка дополненным архивом
Вверх
Пользователь сказал cпасибо:
johnsilver (15.10.2017)
  #2
Старый 15.10.2017, 18:51
johnsilver
Меломан
Досье
 
Аватар для johnsilver
По умолчанию Re: Marie Laforêt - Ses Grands Succes

Приятный сборник, спасибо! А, задника не было в комплекте, для полного счастья...?

Вверх
Пользователь сказал cпасибо:
sergych (15.10.2017)
  #3
Старый 15.10.2017, 19:22
sergych
Координатор
Досье
 
Аватар для sergych
По умолчанию Re: Marie Laforêt - Ses Grands Succes

Цитата: Сообщение от johnsilver Посмотреть сообщение
задника не было в комплекте, для полного счастья...?

Упс... Мой косяк. Не отсканил почему-то Завтра отсканю и вечерком перезалью архив. Объём небольшой, - полагаю перекачать будет несложно?
__________________
TAIFUN.Wings of Soul

Вверх
Пользователь сказал cпасибо:
johnsilver (15.10.2017)
  #4
Старый 15.10.2017, 20:03
johnsilver
Меломан
Досье
 
Аватар для johnsilver
По умолчанию Re: Marie Laforêt - Ses Grands Succes

Конечно не сложно. Спасибо!

Вверх
  #5
Старый 16.10.2017, 18:18
sergych
Координатор
Досье
 
Аватар для sergych
По умолчанию Re: Marie Laforêt - Ses Grands Succes

johnsilver, Обещанного полгода НЕ ждут (по крайней мере на нашем форуме )
Ссылка на дополненный упущенным сканом архив обновлена (точнее осталась прежней )
Или (но размером поменьше).
И ещё раз спасибо за внимательность.
__________________
TAIFUN.Wings of Soul

Вверх
Пользователь сказал cпасибо:
johnsilver (16.10.2017)
  #6
Старый 16.10.2017, 20:09
johnsilver
Меломан
Досье
 
Аватар для johnsilver
По умолчанию Re: Marie Laforêt - Ses Grands Succes

Цитата: Сообщение от sergych Посмотреть сообщение
johnsilver, Обещанного полгода НЕ ждут (по крайней мере на нашем форуме )

Премного благодарен, уважаемый sergych!

Вверх
Пользователь сказал cпасибо:
sergych (17.10.2017)
Похожие темы
Тема Автор Раздел Ответов Последнее сообщение
Релиз Anne Marie Hurst - Day Of All Days PUPOKIN Rock 0 12.02.2012 09:50
Релиз René Marie - Voice of my Beautiful Country PUPOKIN Jazz и Blues 0 08.09.2011 09:46
Релиз Natasha St-Pier - Tu Trouveras... 10 Ans De Succes PUPOKIN Зарубежная Поп-Музыка 0 12.12.2009 11:32
Джо Дассен / Joe Dassin - Ses plus grands succes henrik Альбомы и концерты 0 28.05.2009 21:00
Релиз Marie Digby - Breathing Underwater PUPOKIN Зарубежная Поп-Музыка 0 15.04.2009 13:08


Метки
1988 , chanson , marie laforêt , pop , ses grands succes {the best of}

Опции темы

Ваши права в разделе
Вы не можете создавать новые темы
Вы не можете отвечать в темах
Вы не можете прикреплять вложения
Вы не можете редактировать свои сообщения

Быстрый переход



Текущее время: 00:33. Часовой пояс GMT +3.
Powered by vBulletin® Version 3.8.10
Copyright ©2000 - 2018, vBulletin Solutions, Inc. Перевод: zCarot
© 2008 - 2017 Taifun With Song
Яндекс.Метрика