TAIFUN With Song
Навигация
Jazz и Blues Гибкая ритмика, импровизационное начало, гармонии и мелодии - все это Jazz. Blues - жизнеутверждающая музыка, рожденная из душевной боли

А знаете ли Вы, что...
Какой русский поп-певец имеет самую большую армию поклонников?
«Витас — самый популярный современный русский исполнитель в Китае, что ставит его на первое место среди всех русских исполнителей по общему числу поклонников в мире.»
 
Опции темы

  #1
Старый 31.08.2017, 00:01
sergych
Координатор
Досье
 
Аватар для sergych
Релиз Jonathan Butler - Jonathan


2005 - Jonathan Butler - Jonathan




Исполнитель/Artist: Jonathan Butler
Альбом/Album: Jonathan
Год/Year: 2005
Жанр/Genre: Smooth jazz, Funky
Страна/Country: Россия
Рекорд-лейбл/Record label: Par Media Music
Номер в каталоге/Catalogue #: ZZ-05GP0001860
Формат/Format: Free Lossless Audio Codec (*.flac)
Качество/Quality: Lossless
Тип рипа/RIP Type: image+.cue
Продолжительность/Length: 00:45:11
Источник/Source: Собственный рип
Размер/Size: 324.2 MB

Сканы в комплекте

Треклист

01. Rio [0:03:52.13]
02. Mandela Bay [0:04:08.53]
03. 10 Degrees South [0:04:03.21]
04. Randy's Song [0:03:31.49]
05. Fire and Rain [0:03:47.47]
06. Precious Things [0:03:54.58]
07. Sweet Island Love [0:04:23.47]
08. Baby Love [0:03:56.55]
09. For a Friend [0:03:38.50]
10. Spirit of Our Nation [0:05:03.53]
11. Move Me [0:04:49.48]
[свернуть]

youtube.com

[свернуть]

EAC лог

Exact Audio Copy V1.3 from 2. September 2016

EAC extraction logfile from 30. August 2017, 21:33

Jonathan Butler / Jonathan

Used drive : PLEXTOR DVDR PX-716A Adapter: 1 ID: 0

Read mode : Secure
Utilize accurate stream : Yes
Defeat audio cache : Yes
Make use of C2 pointers : No

Read offset correction : 30
Overread into Lead-In and Lead-Out : No
Fill up missing offset samples with silence : Yes
Delete leading and trailing silent blocks : No
Null samples used in CRC calculations : Yes
Used interface : Installed external ASPI interface

Used output format : User Defined Encoder
Selected bitrate : 1024 kBit/s
Quality : High
Add ID3 tag : No
Command line compressor : C:\Program Files (x86)\Exact Audio Copy\Flac\flac.exe
Additional command line options : -6 -V -T "ARTIST=%artist%" -T "TITLE=%title%" -T "ALBUM=%albumtitle%" -T "DATE=%year%" -T "TRACKNUMBER=%tracknr%" -T "GENRE=%genre%" -T "COMMENT=%comment%" -T "BAND=%albuminterpret%" -T "ALBUMARTIST=%albuminterpret%" -T "COMPOSER=%composer%" %haslyrics%--tag-from-file=LYRICS="%lyricsfile%"%haslyrics% -T "DISCNUMBER=%cdnumber%" -T "TOTALDISCS=%totalcds%" -T "TOTALTRACKS=%numtracks%" %hascover%--picture="%coverfile%"%hascover% %source% -o %dest%


TOC of the extracted CD

Track | Start | Length | Start sector | End sector
---------------------------------------------------------
1 | 0:00.00 | 3:52.13 | 0 | 17412
2 | 3:52.13 | 4:08.53 | 17413 | 36065
3 | 8:00.66 | 4:03.21 | 36066 | 54311
4 | 12:04.12 | 3:31.49 | 54312 | 70185
5 | 15:35.61 | 3:47.47 | 70186 | 87257
6 | 19:23.33 | 3:54.58 | 87258 | 104865
7 | 23:18.16 | 4:23.47 | 104866 | 124637
8 | 27:41.63 | 3:56.55 | 124638 | 142392
9 | 31:38.43 | 3:38.50 | 142393 | 158792
10 | 35:17.18 | 5:03.53 | 158793 | 181570
11 | 40:20.71 | 4:49.48 | 181571 | 203293


Range status and errors

Selected range

Filename C:\mm\Jonathan Butler\2005 - Jonathan [ZZ-05GP0001860]\Jonathan Butler - Jonathan.wav

Peak level 98.8 %
Extraction speed 11.9 X
Range quality 100.0 %
Test CRC C191E89F
Copy CRC C191E89F
Copy OK

No errors occurred

End of status report

---- CUETools DB Plugin V2.1.6

[CTDB TOCID: 8fiObZqi1W6nAhP1ybP20kHtwG8-] found
Submit result: 8fiObZqi1W6nAhP1ybP20kHtwG8- has been confirmed
Track | CTDB Status
1 | (15/15) Accurately ripped
2 | (12/15) Accurately ripped
3 | (15/15) Accurately ripped
4 | (15/15) Accurately ripped
5 | (15/15) Accurately ripped
6 | (15/15) Accurately ripped
7 | (15/15) Accurately ripped
8 | (15/15) Accurately ripped
9 | (15/15) Accurately ripped
10 | (15/15) Accurately ripped
11 | (15/15) Accurately ripped
[свернуть]

Файл CUE

REM GENRE "Smooth Jazz"
REM DATE 2005
REM DISCID 7E0A960B
REM COMMENT "ExactAudioCopy v1.3"
PERFORMER "Jonathan Butler"
TITLE "Jonathan"
REM COMPOSER ""
FILE "Jonathan Butler - Jonathan.flac" WAVE
TRACK 01 AUDIO
TITLE "Rio"
PERFORMER "Jonathan Butler"
REM COMPOSER ""
INDEX 01 00:00:00
TRACK 02 AUDIO
TITLE "Mandela Bay"
PERFORMER "Jonathan Butler"
REM COMPOSER ""
INDEX 01 03:52:13
TRACK 03 AUDIO
TITLE "10 Degrees South"
PERFORMER "Jonathan Butler"
REM COMPOSER ""
INDEX 01 08:00:66
TRACK 04 AUDIO
TITLE "Randy's Song"
PERFORMER "Jonathan Butler"
REM COMPOSER ""
INDEX 01 12:04:12
TRACK 05 AUDIO
TITLE "Fire and Rain"
PERFORMER "Jonathan Butler"
REM COMPOSER ""
INDEX 01 15:35:61
TRACK 06 AUDIO
TITLE "Precious Things"
PERFORMER "Jonathan Butler"
REM COMPOSER ""
INDEX 01 19:23:33
TRACK 07 AUDIO
TITLE "Sweet Island Love"
PERFORMER "Jonathan Butler"
REM COMPOSER ""
INDEX 01 23:18:16
TRACK 08 AUDIO
TITLE "Baby Love"
PERFORMER "Jonathan Butler"
REM COMPOSER ""
INDEX 01 27:41:63
TRACK 09 AUDIO
TITLE "For a Friend"
PERFORMER "Jonathan Butler"
REM COMPOSER ""
INDEX 01 31:38:43
TRACK 10 AUDIO
TITLE "Spirit of Our Nation"
PERFORMER "Jonathan Butler"
REM COMPOSER ""
INDEX 01 35:17:18
TRACK 11 AUDIO
TITLE "Move Me"
PERFORMER "Jonathan Butler"
REM COMPOSER ""
INDEX 01 40:20:71
[свернуть]

Лог проверки качества

AUDIOCHECKER v2.0 beta (build 457) - by Dester -
~~~~~~~~~~~~~~~~~~~~~~~~~~~~~~~~~~
-=== НЕ РЕДАКТИРУЙТЕ ЭТОТ ФАЙЛ! ===-

Путь: ...\2005 - Jonathan [ZZ-05GP0001860]

1 -=- Jonathan Butler - Jonathan.flac -=- CDDA (99%)

212041604
[свернуть]

Спектр частот

[свернуть]

Скачать Jonathan Butler - Jonathan



password: sergych
[свернуть]

Контрольная сумма (хеш-сумма) архива

MD5: 67f83208016d8944e00329c84358456c
[свернуть]
My opinion of release: 10/10
__________________
TAIFUN.Wings of Soul

Вверх
2 пользователя(ей) сказали cпасибо:
johnsilver (31.08.2017), swint68 (31.08.2017)
Похожие темы
Тема Автор Раздел Ответов Последнее сообщение
Альбом Jonathan Butler - More Than Friends sergych Зарубежная Поп-Музыка 2 07.07.2017 22:45
Альбом Jonathan Butler - The Source sergych Jazz и Blues 0 05.06.2016 11:23
Альбом Jonathan Butler - Living My Dream sergych Jazz и Blues 0 08.05.2016 20:09
Альбом Jonathan Butler - Story Of Life sergych Jazz и Blues 0 04.01.2016 09:38
Альбом Jonathan Butler - Grace And Mercy sergych Jazz и Blues 0 05.12.2015 09:38


Метки
2005 , funky , jonathan , jonathan butler , smooth jazz

Опции темы

Ваши права в разделе
Вы не можете создавать новые темы
Вы не можете отвечать в темах
Вы не можете прикреплять вложения
Вы не можете редактировать свои сообщения

Быстрый переход



Текущее время: 18:20. Часовой пояс GMT +3.
Powered by vBulletin® Version 3.8.10
Copyright ©2000 - 2018, vBulletin Solutions, Inc. Перевод: zCarot
© 2008 - 2018 Taifun With Song
Яндекс.Метрика