TAIFUN With Song
Навигация
Jazz и Blues Гибкая ритмика, импровизационное начало, гармонии и мелодии - все это Jazz. Blues - жизнеутверждающая музыка, рожденная из душевной боли

А знаете ли Вы, что...
Почему песня «А может быть ворона» из советского мультфильма была записана в ускоренном темпе?
«Песня «А может быть ворона» изначально должна была звучать в мультфильме «Пластилиновая ворона» в обычном темпе. Однако режиссёр Александр Татарский не проследил за временем записи, из-за чего песня не уложилась в отведённые 5 минут анимации. Решение было найдено простое — песню ускорили, в результате чего она приобрела своё знаменитое «мультяшное» звучание.»
 
Опции темы

  #1
Старый 13.07.2017, 05:34
igoryok63
Меломан
Досье
 
Аватар для igoryok63
По умолчанию Jim Allchin - Overclocked


2011 - Jim Allchin - Overclocked




Исполнитель/Artist: Jim Allchin
Альбом/Album: Overclocked
Год/Year: 2011
Жанр/Genre: Contemporary Blues
Страна/Country: Соединённые Штаты
Рекорд-лейбл/Record label: Sandy Key Music LLC
Формат/Format: Free Lossless Audio Codec (*.flac)
Качество/Quality: Lossless
Тип рипа/RIP Type: image+.cue
Продолжительность/Length: 00:51:06
Размер/Size: 351.62 MB


Треклист

01.Overclocked - 03:04
02.Willow Tree - 04:08
03.Back in the Swamp - 03:44
04.Don't tell Me What To Do - 03:18
05.One For The Money - 03:57
06.Fall - 04:13
07.Dr J - 03:13
08.Mr Unknown - 04:50
09.Flirt - 03:40
10.Perfect Game - 05:39
11.Just Playin with Me - 02:56
12.The One - 03:45
13.Opening My Eyes To Love - 04:32
[свернуть]

EAC лог

Exact Audio Copy V1.1 from 23. June 2015

EAC extraction logfile from 11. July 2017, 5:33

Jim Allchin / Overclocked

Used drive : HL-DT-STDVDRAM GSA-H44N Adapter: 1 ID: 1

Read mode : Secure
Utilize accurate stream : Yes
Defeat audio cache : Yes
Make use of C2 pointers : No

Read offset correction : 667
Overread into Lead-In and Lead-Out : No
Fill up missing offset samples with silence : Yes
Delete leading and trailing silent blocks : No
Null samples used in CRC calculations : Yes
Used interface : Native Win32 interface for Win NT & 2000

Used output format : User Defined Encoder
Selected bitrate : 1024 kBit/s
Quality : High
Add ID3 tag : No
Command line compressor : C:\Program Files (x86)\Exact Audio Copy\FLAC\FLAC.EXE
Additional command line options : V -4 -T "Date=%year%" -T "Genre=%genre%" %source%


TOC of the extracted CD

Track | Start | Length | Start sector | End sector
---------------------------------------------------------
1 | 0:00.00 | 3:06.45 | 0 | 13994
2 | 3:06.45 | 4:10.45 | 13995 | 32789
3 | 7:17.15 | 3:46.30 | 32790 | 49769
4 | 11:03.45 | 3:20.68 | 49770 | 64837
5 | 14:24.38 | 3:59.30 | 64838 | 82792
6 | 18:23.68 | 4:15.45 | 82793 | 101962
7 | 22:39.38 | 3:15.15 | 101963 | 116602
8 | 25:54.53 | 4:52.45 | 116603 | 138547
9 | 30:47.23 | 3:42.15 | 138548 | 155212
10 | 34:29.38 | 5:41.60 | 155213 | 180847
11 | 40:11.23 | 2:59.00 | 180848 | 194272
12 | 43:10.23 | 3:47.15 | 194273 | 211312
13 | 46:57.38 | 4:32.68 | 211313 | 231780


Range status and errors

Selected range

Filename E:\Рабочая\Blues music\Jim Allchin - Overclocked (2011)\Jim Allchin - Overclocked.wav

Peak level 100.0 %
Extraction speed 4.4 X
Range quality 100.0 %
Copy CRC CC400706
Copy OK

No errors occurred

End of status report
[свернуть]

Лог проверки качества

AUDIOCHECKER v2.0 beta (build 457) - by Dester -
~~~~~~~~~~~~~~~~~~~~~~~~~~~~~~~~~~
-=== DO NOT EDIT THIS FILE! ===-

Path: ...\Jim Allchin - Overclocked (2011)

1 -=- Jim Allchin - Overclocked.flac -=- CDDA (100%)

10516436
[свернуть]

Скачать Jim Allchin - Overclocked



[свернуть]
My opinion of release: 10/10

Release info RInfo

Password in archive: nota304

Вверх
Пользователь сказал cпасибо:
sergych (14.07.2017)
Похожие темы
Тема Автор Раздел Ответов Последнее сообщение
Альбом Jim Allchin - Decisions igoryok63 Jazz и Blues 0 13.07.2017 05:30


Метки
2011 , contemporary blues , jim allchin , overclocked

Опции темы

Ваши права в разделе
Вы не можете создавать новые темы
Вы не можете отвечать в темах
Вы не можете прикреплять вложения
Вы не можете редактировать свои сообщения

Быстрый переход



Текущее время: 13:49. Часовой пояс GMT +3.
Powered by vBulletin® Version 3.8.10
Copyright ©2000 - 2018, vBulletin Solutions, Inc. Перевод: zCarot
© 2008 - 2017 Taifun With Song
Яндекс.Метрика