TAIFUN With Song
Навигация
Вернуться   TAIFUN With Song > Music (обменник) > Другие направления музыки > Jazz и Blues
Расширенный поиск
Jazz и Blues Гибкая ритмика, импровизационное начало, гармонии и мелодии - все это Jazz. Blues - жизнеутверждающая музыка, рожденная из душевной боли

А знаете ли Вы, что...
Какой русский музыкальный инструмент мы называем цыганским?
«Семиструнную гитару во всём мире называют русской гитарой, а у нас также распространено название цыганская гитара.»
 
Опции темы

  #1
Старый 23.06.2017, 19:48
sergych
Координатор
Досье
 
Аватар для sergych
Релиз Van Morrison - Duets: Re-Working The Catalogue


2015 - Van Morrison - Duets: Re-Working The Catalogue




Исполнитель/Artist: Van Morrison
Альбом/Album: Duets: Re-Working The Catalogue
Год/Year: 2015
Жанр/Genre: jazz, blues, pop, rock, R&B
Страна/Country: Австралия
Рекорд-лейбл/Record label: Sony Music
Номер в каталоге/Catalogue #: 88875068442
Формат/Format: Free Lossless Audio Codec (*.flac)
Качество/Quality: Lossless
Тип рипа/RIP Type: image+.cue
Продолжительность/Length: 01:16:24
Источник/Source: Собственный рип
Размер/Size: 594.6 MB

Сканы в комплекте

Треклист

01. Van Morrison And With Bobby Womack / Some Peace Of Mind [0:05:15.11]
02. Van Morrison And Mavis Staples / If I Ever Needed Someone [0:03:49.10]
03. Van Morrison And George Benson / Higher Than The World [0:03:48.47]
04. Van Morrison And Joss Stone / Wild Honey [0:06:22.31]
05. Van Morrison And PJ Proby / Whatever Happened To PJ Proby [0:03:42.09]
06. Van Morrison And Clare Teal / Carrying A Torch [0:04:52.67]
07. Van Morrison And Gregory Porter / The Eternal Kansas City [0:04:10.51]
08. Van Morrison And Mick Hucknall / Streets Of Arklow [0:04:57.13]
09. Van Morrison And Natalie Cole / These Are The Days [0:03:51.32]
10. Van Morrison And Georgie Fame / Get On With The Show [0:04:41.42]
11. Van Morrison And Shana Morrison / Rough God Goes Riding [0:04:23.52]
12. Van Morrison And Steve Winwood / Fire In The Belly [0:06:40.55]
13. Van Morrison And Chris Farlowe / Born To Sing [0:03:59.05]
14. Van Morrison And Mark Knopfler / Irish Heartbeat [0:05:14.46]
15. Van Morrison And Michael Buble / Real Real Gone [0:03:59.73]
16. Van Morrison And Taj Mahal / How Can A Poor Boy [0:06:34.66]
[свернуть]

youtube.com

[свернуть]

EAC лог

Exact Audio Copy V1.3 from 2. September 2016

EAC extraction logfile from 14. June 2017, 1:22

Van Morrison / Duets: Re-Working The Catalogue

Used drive : PLEXTOR DVDR PX-716A Adapter: 1 ID: 0

Read mode : Secure
Utilize accurate stream : Yes
Defeat audio cache : Yes
Make use of C2 pointers : No

Read offset correction : 30
Overread into Lead-In and Lead-Out : No
Fill up missing offset samples with silence : Yes
Delete leading and trailing silent blocks : No
Null samples used in CRC calculations : Yes
Used interface : Native Win32 interface for Win NT & 2000

Used output format : User Defined Encoder
Selected bitrate : 1024 kBit/s
Quality : High
Add ID3 tag : No
Command line compressor : C:\Program Files (x86)\Exact Audio Copy\Flac\flac.exe
Additional command line options : -6 -V -T "ARTIST=%artist%" -T "TITLE=%title%" -T "ALBUM=%albumtitle%" -T "DATE=%year%" -T "TRACKNUMBER=%tracknr%" -T "GENRE=%genre%" -T "COMMENT=%comment%" -T "BAND=%albuminterpret%" -T "ALBUMARTIST=%albuminterpret%" -T "COMPOSER=%composer%" %haslyrics%--tag-from-file=LYRICS="%lyricsfile%"%haslyrics% -T "DISCNUMBER=%cdnumber%" -T "TOTALDISCS=%totalcds%" -T "TOTALTRACKS=%numtracks%" %hascover%--picture="%coverfile%"%hascover% %source% -o %dest%


TOC of the extracted CD

Track | Start | Length | Start sector | End sector
---------------------------------------------------------
1 | 0:00.00 | 5:15.11 | 0 | 23635
2 | 5:15.11 | 3:49.10 | 23636 | 40820
3 | 9:04.21 | 3:48.47 | 40821 | 57967
4 | 12:52.68 | 6:22.31 | 57968 | 86648
5 | 19:15.24 | 3:42.09 | 86649 | 103307
6 | 22:57.33 | 4:52.67 | 103308 | 125274
7 | 27:50.25 | 4:10.51 | 125275 | 144075
8 | 32:01.01 | 4:57.13 | 144076 | 166363
9 | 36:58.14 | 3:51.32 | 166364 | 183720
10 | 40:49.46 | 4:41.42 | 183721 | 204837
11 | 45:31.13 | 4:23.52 | 204838 | 224614
12 | 49:54.65 | 6:40.55 | 224615 | 254669
13 | 56:35.45 | 3:59.05 | 254670 | 272599
14 | 60:34.50 | 5:14.46 | 272600 | 296195
15 | 65:49.21 | 3:59.73 | 296196 | 314193
16 | 69:49.19 | 6:34.66 | 314194 | 343809


Range status and errors

Selected range

Filename C:\mm\Van Morrison\2015 - Duets. Re-working The Catalogue [88875068442]\Van Morrison - Duets- Re-Working The Catalogue.wav

Peak level 98.9 %
Extraction speed 14.3 X
Range quality 100.0 %
Test CRC 054C7638
Copy CRC 054C7638
Copy OK

No errors occurred


AccurateRip summary

Track 1 accurately ripped (confidence 8) [EFBAE135] (AR v2)
Track 2 accurately ripped (confidence 8) [1A2F459E] (AR v2)
Track 3 accurately ripped (confidence 8) [3EF554AD] (AR v2)
Track 4 accurately ripped (confidence 8) [E6FC4710] (AR v2)
Track 5 accurately ripped (confidence 8) [FEE7E6C0] (AR v2)
Track 6 accurately ripped (confidence 8) [75B2A3CA] (AR v2)
Track 7 accurately ripped (confidence 8) [308C7405] (AR v2)
Track 8 accurately ripped (confidence 8) [370E08F6] (AR v2)
Track 9 accurately ripped (confidence 8) [E2E5E18C] (AR v2)
Track 10 accurately ripped (confidence 8) [B66157C1] (AR v2)
Track 11 accurately ripped (confidence 8) [BA12B141] (AR v2)
Track 12 accurately ripped (confidence 8) [9EE01548] (AR v2)
Track 13 accurately ripped (confidence 8) [B2B14D41] (AR v2)
Track 14 accurately ripped (confidence 8) [41F93A2E] (AR v2)
Track 15 accurately ripped (confidence 8) [8FF7C183] (AR v2)
Track 16 accurately ripped (confidence 8) [E6B16E3D] (AR v2)

All tracks accurately ripped

End of status report

---- CUETools DB Plugin V2.1.6

[CTDB TOCID: fl5OM5vVB.x2N9fujT9fV2FWE8Q-] found
Submit result: fl5OM5vVB.x2N9fujT9fV2FWE8Q- has been confirmed
Track | CTDB Status
1 | (560/565) Accurately ripped
2 | (560/565) Accurately ripped
3 | (561/565) Accurately ripped
4 | (561/565) Accurately ripped
5 | (560/565) Accurately ripped
6 | (560/565) Accurately ripped
7 | (561/565) Accurately ripped
8 | (560/565) Accurately ripped
9 | (559/565) Accurately ripped
10 | (560/565) Accurately ripped
11 | (561/565) Accurately ripped
12 | (560/565) Accurately ripped
13 | (561/565) Accurately ripped
14 | (560/565) Accurately ripped
15 | (561/565) Accurately ripped
16 | (547/565) Accurately ripped
[свернуть]

Файл CUE

REM GENRE Rock
REM DATE 2015
REM DISCID F311E810
REM COMMENT "ExactAudioCopy v1.3"
PERFORMER "Van Morrison"
TITLE "Duets: Re-Working The Catalogue"
REM COMPOSER ""
FILE "Van Morrison - Duets- Re-Working The Catalogue.flac" WAVE
TRACK 01 AUDIO
TITLE "Some Peace Of Mind"
PERFORMER "Van Morrison And With Bobby Womack"
REM COMPOSER ""
INDEX 01 00:00:00
TRACK 02 AUDIO
TITLE "If I Ever Needed Someone"
PERFORMER "Van Morrison And Mavis Staples"
REM COMPOSER ""
INDEX 01 05:15:11
TRACK 03 AUDIO
TITLE "Higher Than The World"
PERFORMER "Van Morrison And George Benson"
REM COMPOSER ""
INDEX 01 09:04:21
TRACK 04 AUDIO
TITLE "Wild Honey"
PERFORMER "Van Morrison And Joss Stone"
REM COMPOSER ""
INDEX 01 12:52:68
TRACK 05 AUDIO
TITLE "Whatever Happened To PJ Proby"
PERFORMER "Van Morrison And PJ Proby"
REM COMPOSER ""
INDEX 01 19:15:24
TRACK 06 AUDIO
TITLE "Carrying A Torch"
PERFORMER "Van Morrison And Clare Teal"
REM COMPOSER ""
INDEX 01 22:57:33
TRACK 07 AUDIO
TITLE "The Eternal Kansas City"
PERFORMER "Van Morrison And Gregory Porter"
REM COMPOSER ""
INDEX 01 27:50:25
TRACK 08 AUDIO
TITLE "Streets Of Arklow"
PERFORMER "Van Morrison And Mick Hucknall"
REM COMPOSER ""
INDEX 01 32:01:01
TRACK 09 AUDIO
TITLE "These Are The Days"
PERFORMER "Van Morrison And Natalie Cole"
REM COMPOSER ""
INDEX 01 36:58:14
TRACK 10 AUDIO
TITLE "Get On With The Show"
PERFORMER "Van Morrison And Georgie Fame"
REM COMPOSER ""
INDEX 01 40:49:46
TRACK 11 AUDIO
TITLE "Rough God Goes Riding"
PERFORMER "Van Morrison And Shana Morrison"
REM COMPOSER ""
INDEX 01 45:31:13
TRACK 12 AUDIO
TITLE "Fire In The Belly"
PERFORMER "Van Morrison And Steve Winwood"
REM COMPOSER ""
INDEX 01 49:54:65
TRACK 13 AUDIO
TITLE "Born To Sing"
PERFORMER "Van Morrison And Chris Farlowe"
REM COMPOSER ""
INDEX 01 56:35:45
TRACK 14 AUDIO
TITLE "Irish Heartbeat"
PERFORMER "Van Morrison And Mark Knopfler"
REM COMPOSER ""
INDEX 01 60:34:50
TRACK 15 AUDIO
TITLE "Real Real Gone"
PERFORMER "Van Morrison And Michael Buble"
REM COMPOSER ""
INDEX 01 65:49:21
TRACK 16 AUDIO
TITLE "How Can A Poor Boy"
PERFORMER "Van Morrison And Taj Mahal"
REM COMPOSER ""
INDEX 01 69:49:19
[свернуть]

Лог проверки качества

AUDIOCHECKER v2.0 beta (build 457) - by Dester -
~~~~~~~~~~~~~~~~~~~~~~~~~~~~~~~~~~
-=== НЕ РЕДАКТИРУЙТЕ ЭТОТ ФАЙЛ! ===-

Путь: ...\2015 - Duets. Re-working The Catalogue [88875068442]

1 -=- Van Morrison - Duets- Re-Working The Catalogue.flac -=- CDDA (100%)

41008580
[свернуть]

Спектр частот

[свернуть]

Скачать Van Morrison - Duets: Re-Working The Catalogue



password: sergych
[свернуть]

Контрольная сумма (хеш-сумма) архива

MD5: 14b8241ec405c02109ec0627db83eacd
[свернуть]
My opinion of release: 10/10
__________________
TAIFUN.Wings of Soul

Вверх
2 пользователя(ей) сказали cпасибо:
johnsilver (23.06.2017), swint68 (23.06.2017)
Похожие темы
Тема Автор Раздел Ответов Последнее сообщение
Релиз Merle Haggard – Working in Tennessee PUPOKIN Country 0 05.10.2011 10:30
Релиз Matthew Morrison - Matthew Morrison PUPOKIN Зарубежная Поп-Музыка 0 06.05.2011 09:49
Альбом Digital – Back Catalogue 1 PUPOKIN Drum & Bass 0 20.05.2010 09:59
Релиз Rush - Working Men PUPOKIN Progressive Rock 0 14.11.2009 13:37
Релиз Oasis - Working Class Hero PUPOKIN Alternative Rock 0 08.09.2009 12:48


Метки
2015 , blues , duets: re-working the catalogue , jazz , pop , r&b , rock , van morrison

Опции темы

Ваши права в разделе
Вы не можете создавать новые темы
Вы не можете отвечать в темах
Вы не можете прикреплять вложения
Вы не можете редактировать свои сообщения

Быстрый переход



Текущее время: 13:40. Часовой пояс GMT +3.
Powered by vBulletin® Version 3.8.10
Copyright ©2000 - 2018, vBulletin Solutions, Inc. Перевод: zCarot
© 2008 - 2017 Taifun With Song
Яндекс.Метрика