TAIFUN With Song
Навигация
Вернуться   TAIFUN With Song > Music (обменник) > Другие направления музыки > Шансон
Расширенный поиск
Шансон Городской шансон, барды, и т.п.

А знаете ли Вы, что...
Почему обложку музыкального сборника
«В 2005 году Sony BMG выпустила музыкальный сборник ‘Electric 80s’. В оформлении обложки диска был использован большой штрих-код. Некоторые супермаркеты потерпели убытки после того, как их продавцы считывали сканерами именно этот штрих-код вместо обычного, располагающегося на обратной стороне диска. Сканеры распознавали по коду другой товар, который стоил дешевле. Во второй партии дисков обложка была изменена.»
 
Опции темы

  #1
Старый 14.03.2015, 20:12
sergych
Координатор
Досье
 
Аватар для sergych
Релиз Jacques Brel - The Platinum Collection


2013 - Jacques Brel - The Platinum Collection




Исполнитель/Artist: Jacques Brel
Альбом/Album: The Platinum Collection
Год/Year: 2013
Жанр/Genre: Chanson
Страна/Country: Аргентина
Рекорд-лейбл/Record label: RGS Music
Номер в каталоге/Catalogue #: 1796-2
Формат/Format: Free Lossless Audio Codec (*.flac)
Качество/Quality: Lossless
Тип рипа/RIP Type: image+.cue
Продолжительность/Length: 01:09:44
Источник/Source: Собственный рип
Размер/Size: 306.1 MB

Сканы в комплекте

Треклист

01. Ne Me Quitte Pas [0:03:51.00]
02. Il Y A [0:02:21.51]
03. J' en Appelle [0:02:45.54]
04. Pardons [0:02:19.70]
05. Voir [0:02:21.31]
06. Sur La Place [0:02:49.55]
07. Litanies Pour Un Retour [0:02:10.30]
08. Le Diable [0:02:26.14]
09. La Lumiere Jaillira [0:02:58.41]
10. Je t' Aime [0:02:20.36]
11. Demain L' On Se Marie (Le Chanson Des Fiances) [0:02:33.60]
12. Heureux [0:02:52.40]
13. La Haine [0:01:55.47]
14. La Tendresse [0:02:37.60]
15. Au Printemps [0:02:41.29]
16. L' Aventure [0:02:36.37]
17. Je Ne Sais Pas [0:03:09.13]
18. La Foire [0:03:23.18]
19. Dites, Si C' etait Vrai [0:01:29.43]
20. Les Bles [0:01:49.05]
21. Le Colonel [0:03:12.27]
22. Dors Ma Mie, Bonsoir [0:03:44.69]
23. L' Homme Dans La Cite [0:02:24.12]
24. Les Flamandes [0:02:35.20]
25. Voici [0:02:45.15]
26. Seul [0:03:27.71]
[свернуть]

youtube.com

[свернуть]

EAC лог

Exact Audio Copy V1.0 beta 3 from 29. August 2011

EAC extraction logfile from 14. March 2015, 16:05

Jacques Brel / The Platinum Collection

Used drive : ATAPI iHAS124 D Adapter: 0 ID: 2

Read mode : Secure
Utilize accurate stream : Yes
Defeat audio cache : Yes
Make use of C2 pointers : No

Read offset correction : 6
Overread into Lead-In and Lead-Out : No
Fill up missing offset samples with silence : Yes
Delete leading and trailing silent blocks : No
Null samples used in CRC calculations : Yes
Used interface : Installed external ASPI interface

Used output format : User Defined Encoder
Selected bitrate : 1024 kBit/s
Quality : High
Add ID3 tag : No
Command line compressor : C:\Program Files (x86)\Exact Audio Copy\Flac\flac.exe
Additional command line options : -6 -V -T "ARTIST=%artist%" -T "TITLE=%title%" -T "ALBUM=%albumtitle%" -T "DATE=%year%" -T "TRACKNUMBER=%tracknr%" -T "GENRE=%genre%" -T "COMMENT=%comment%" -T "BAND=%albuminterpret%" -T "COMPOSER=%composer%" %haslyrics%--tag-from-file=LYRICS="%lyricsfile%"%haslyrics% -T "DISCNUMBER=%cdnumber%" -T "TOTALDISCS=%totalcds%" -T "TOTALTRACKS=%numtracks%" %hascover%--picture="%coverfile%"%hascover% %source% -o %dest%


TOC of the extracted CD

Track | Start | Length | Start sector | End sector
---------------------------------------------------------
1 | 0:00.00 | 3:51.00 | 0 | 17324
2 | 3:51.00 | 2:21.51 | 17325 | 27950
3 | 6:12.51 | 2:45.54 | 27951 | 40379
4 | 8:58.30 | 2:19.70 | 40380 | 50874
5 | 11:18.25 | 2:21.31 | 50875 | 61480
6 | 13:39.56 | 2:49.55 | 61481 | 74210
7 | 16:29.36 | 2:10.30 | 74211 | 83990
8 | 18:39.66 | 2:26.14 | 83991 | 94954
9 | 21:06.05 | 2:58.41 | 94955 | 108345
10 | 24:04.46 | 2:20.36 | 108346 | 118881
11 | 26:25.07 | 2:33.60 | 118882 | 130416
12 | 28:58.67 | 2:52.40 | 130417 | 143356
13 | 31:51.32 | 1:55.47 | 143357 | 152028
14 | 33:47.04 | 2:37.60 | 152029 | 163863
15 | 36:24.64 | 2:41.29 | 163864 | 175967
16 | 39:06.18 | 2:36.37 | 175968 | 187704
17 | 41:42.55 | 3:09.13 | 187705 | 201892
18 | 44:51.68 | 3:23.18 | 201893 | 217135
19 | 48:15.11 | 1:29.43 | 217136 | 223853
20 | 49:44.54 | 1:49.05 | 223854 | 232033
21 | 51:33.59 | 3:12.27 | 232034 | 246460
22 | 54:46.11 | 3:44.69 | 246461 | 263329
23 | 58:31.05 | 2:24.12 | 263330 | 274141
24 | 60:55.17 | 2:35.20 | 274142 | 285786
25 | 63:30.37 | 2:45.15 | 285787 | 298176
26 | 66:15.52 | 3:27.71 | 298177 | 313772


Range status and errors

Selected range

Filename C:\mm\Jacques Brel\2013 - The Platinum Collection [1796-2]\Jacques Brel - The Platinum Collection.wav

Peak level 98.9 %
Extraction speed 10.0 X
Range quality 100.0 %
Test CRC 2B28461A
Copy CRC 2B28461A
Copy OK

No errors occurred


AccurateRip summary

Track 1 not present in database
Track 2 not present in database
Track 3 not present in database
Track 4 not present in database
Track 5 not present in database
Track 6 not present in database
Track 7 not present in database
Track 8 not present in database
Track 9 not present in database
Track 10 not present in database
Track 11 not present in database
Track 12 not present in database
Track 13 not present in database
Track 14 not present in database
Track 15 not present in database
Track 16 not present in database
Track 17 not present in database
Track 18 not present in database
Track 19 not present in database
Track 20 not present in database
Track 21 not present in database
Track 22 not present in database
Track 23 not present in database
Track 24 not present in database
Track 25 not present in database
Track 26 not present in database

None of the tracks are present in the AccurateRip database

End of status report
[свернуть]

Файл CUE

REM GENRE Chanson
REM DATE 2013
REM DISCID 9210571A
REM COMMENT "ExactAudioCopy v1.0b3"
PERFORMER "Jacques Brel"
TITLE "The Platinum Collection"
FILE "Jacques Brel - The Platinum Collection.flac" WAVE
TRACK 01 AUDIO
TITLE "Ne Me Quitte Pas"
PERFORMER "Jacques Brel"
FLAGS DCP
INDEX 01 00:00:00
TRACK 02 AUDIO
TITLE "Il Y A"
PERFORMER "Jacques Brel"
FLAGS DCP
INDEX 01 03:51:00
TRACK 03 AUDIO
TITLE "J' en Appelle"
PERFORMER "Jacques Brel"
FLAGS DCP
INDEX 01 06:12:51
TRACK 04 AUDIO
TITLE "Pardons"
PERFORMER "Jacques Brel"
FLAGS DCP
INDEX 01 08:58:30
TRACK 05 AUDIO
TITLE "Voir"
PERFORMER "Jacques Brel"
FLAGS DCP
INDEX 01 11:18:25
TRACK 06 AUDIO
TITLE "Sur La Place"
PERFORMER "Jacques Brel"
FLAGS DCP
INDEX 01 13:39:56
TRACK 07 AUDIO
TITLE "Litanies Pour Un Retour"
PERFORMER "Jacques Brel"
FLAGS DCP
INDEX 01 16:29:36
TRACK 08 AUDIO
TITLE "Le Diable"
PERFORMER "Jacques Brel"
FLAGS DCP
INDEX 01 18:39:66
TRACK 09 AUDIO
TITLE "La Lumiere Jaillira"
PERFORMER "Jacques Brel"
FLAGS DCP
INDEX 01 21:06:05
TRACK 10 AUDIO
TITLE "Je t' Aime"
PERFORMER "Jacques Brel"
FLAGS DCP
INDEX 01 24:04:46
TRACK 11 AUDIO
TITLE "Demain L' On Se Marie (Le Chanson Des Fiances)"
PERFORMER "Jacques Brel"
FLAGS DCP
INDEX 01 26:25:07
TRACK 12 AUDIO
TITLE "Heureux"
PERFORMER "Jacques Brel"
FLAGS DCP
INDEX 01 28:58:67
TRACK 13 AUDIO
TITLE "La Haine"
PERFORMER "Jacques Brel"
FLAGS DCP
INDEX 01 31:51:32
TRACK 14 AUDIO
TITLE "La Tendresse"
PERFORMER "Jacques Brel"
FLAGS DCP
INDEX 01 33:47:04
TRACK 15 AUDIO
TITLE "Au Printemps"
PERFORMER "Jacques Brel"
FLAGS DCP
INDEX 01 36:24:64
TRACK 16 AUDIO
TITLE "L' Aventure"
PERFORMER "Jacques Brel"
FLAGS DCP
INDEX 01 39:06:18
TRACK 17 AUDIO
TITLE "Je Ne Sais Pas"
PERFORMER "Jacques Brel"
FLAGS DCP
INDEX 01 41:42:55
TRACK 18 AUDIO
TITLE "La Foire"
PERFORMER "Jacques Brel"
FLAGS DCP
INDEX 01 44:51:68
TRACK 19 AUDIO
TITLE "Dites, Si C' etait Vrai"
PERFORMER "Jacques Brel"
FLAGS DCP
INDEX 01 48:15:11
TRACK 20 AUDIO
TITLE "Les Bles"
PERFORMER "Jacques Brel"
FLAGS DCP
INDEX 01 49:44:54
TRACK 21 AUDIO
TITLE "Le Colonel"
PERFORMER "Jacques Brel"
FLAGS DCP
INDEX 01 51:33:59
TRACK 22 AUDIO
TITLE "Dors Ma Mie, Bonsoir"
PERFORMER "Jacques Brel"
FLAGS DCP
INDEX 01 54:46:11
TRACK 23 AUDIO
TITLE "L' Homme Dans La Cite"
PERFORMER "Jacques Brel"
FLAGS DCP
INDEX 01 58:31:05
TRACK 24 AUDIO
TITLE "Les Flamandes"
PERFORMER "Jacques Brel"
FLAGS DCP
INDEX 01 60:55:17
TRACK 25 AUDIO
TITLE "Voici"
PERFORMER "Jacques Brel"
FLAGS DCP
INDEX 01 63:30:37
TRACK 26 AUDIO
TITLE "Seul"
PERFORMER "Jacques Brel"
FLAGS DCP
INDEX 01 66:15:52
[свернуть]

Лог проверки качества

AUDIOCHECKER v2.0 beta (build 457) - by Dester -
~~~~~~~~~~~~~~~~~~~~~~~~~~~~~~~~~~
-=== НЕ РЕДАКТИРУЙТЕ ЭТОТ ФАЙЛ! ===-

Путь: ...\2013 - The Platinum Collection [1796-2]

1 -=- Jacques Brel - The Platinum Collection.flac -=- MPEG (95%)

212587172
[свернуть]

Спектр частот

[свернуть]

Скачать Jacques Brel - The Platinum Collection



password: sergych
[свернуть]
My opinion of release: 9/10
__________________
TAIFUN.Wings of Soul

Вверх
Похожие темы
Тема Автор Раздел Ответов Последнее сообщение
Сборник Jacques Brel - Infiniment sergych Шансон 0 21.09.2014 17:46
Сборник The Platinum New age Collection PUPOKIN New age 0 08.01.2010 10:10
Сборник Al Bano - The Platinum Collection PUPOKIN Зарубежная Поп-Музыка 0 20.11.2009 11:02
The Doors - The Platinum Collection PUPOKIN Hard Rock 0 20.10.2008 18:34


Метки
2013 , chanson , jacques brel , the platinum collection

Опции темы

Ваши права в разделе
Вы не можете создавать новые темы
Вы не можете отвечать в темах
Вы не можете прикреплять вложения
Вы не можете редактировать свои сообщения

Быстрый переход



Текущее время: 18:44. Часовой пояс GMT +3.
Powered by vBulletin® Version 3.8.10
Copyright ©2000 - 2018, vBulletin Solutions, Inc. Перевод: zCarot
© 2008 - 2018 Taifun With Song
Яндекс.Метрика