TAIFUN With Song
Навигация
Шансон Городской шансон, барды, и т.п.

А знаете ли Вы, что...
Какой композитор писал музыку, будучи глухим?
«На момент написания своей знаменитой девятой симфонии Бетховен был абсолютно глух.»
 
Опции темы

  #1
Старый 08.11.2014, 10:33
sergych
Координатор
Досье
 
Аватар для sergych
Релиз Elise Velle, Rene Dupere - Voyage


1995 - Elise Velle, Rene Dupere - Voyage




Исполнитель/Artist: Elise Velle, Rene Dupere
Альбом/Album: Voyage
Год/Year: 1995
Ремастеринг/Remaster: 2001
Жанр/Genre: chanson, ballad, pop
Страна/Country: Канада
Рекорд-лейбл/Record label: Musicaction
Номер в каталоге/Catalogue #: NET2-1440
Формат/Format: Free Lossless Audio Codec (*.flac)
Качество/Quality: Lossless
Тип рипа/RIP Type: image+.cue
Продолжительность/Length: 00:49:33
Источник/Source: Собственный рип
Размер/Size: 335.3 MB

Сканы в комплекте

Треклист

01. Sortilegio [0:04:30.10]
02. Mayalah [0:04:16.47]
03. Ismya Vova [0:03:25.58]
04. Noche de luz [0:04:38.62]
05. Post Card [0:04:22.25]
06. Cosi va la vita [0:04:00.25]
07. Appel [0:00:13.48]
08. L'homme voile [0:05:31.17]
09. Naked Trees [0:04:27.65]
10. Argentina en la piel [0:04:59.18]
11. Kora vestryeva [0:05:11.10]
12. Berceuse chinoise [0:03:56.47]
[свернуть]

youtube.com

[свернуть]

EAC лог

Exact Audio Copy V1.0 beta 3 from 29. August 2011

EAC extraction logfile from 8. November 2014, 0:33

Elise Velle, Rene Dupere / Voyage

Used drive : ATAPI iHAS124 D Adapter: 0 ID: 2

Read mode : Secure
Utilize accurate stream : Yes
Defeat audio cache : Yes
Make use of C2 pointers : No

Read offset correction : 6
Overread into Lead-In and Lead-Out : No
Fill up missing offset samples with silence : Yes
Delete leading and trailing silent blocks : No
Null samples used in CRC calculations : Yes
Used interface : Installed external ASPI interface

Used output format : User Defined Encoder
Selected bitrate : 1024 kBit/s
Quality : High
Add ID3 tag : No
Command line compressor : C:\Program Files (x86)\Exact Audio Copy\Flac\flac.exe
Additional command line options : -6 -V -T "ARTIST=%artist%" -T "TITLE=%title%" -T "ALBUM=%albumtitle%" -T "DATE=%year%" -T "TRACKNUMBER=%tracknr%" -T "GENRE=%genre%" -T "COMMENT=%comment%" -T "BAND=%albuminterpret%" -T "COMPOSER=%composer%" %haslyrics%--tag-from-file=LYRICS="%lyricsfile%"%haslyrics% -T "DISCNUMBER=%cdnumber%" -T "TOTALDISCS=%totalcds%" -T "TOTALTRACKS=%numtracks%" %hascover%--picture="%coverfile%"%hascover% %source% -o %dest%


TOC of the extracted CD

Track | Start | Length | Start sector | End sector
---------------------------------------------------------
1 | 0:00.00 | 4:30.10 | 0 | 20259
2 | 4:30.10 | 4:16.47 | 20260 | 39506
3 | 8:46.57 | 3:25.58 | 39507 | 54939
4 | 12:12.40 | 4:38.62 | 54940 | 75851
5 | 16:51.27 | 4:22.25 | 75852 | 95526
6 | 21:13.52 | 4:00.25 | 95527 | 113551
7 | 25:14.02 | 0:13.48 | 113552 | 114574
8 | 25:27.50 | 5:31.17 | 114575 | 139416
9 | 30:58.67 | 4:27.65 | 139417 | 159506
10 | 35:26.57 | 4:59.18 | 159507 | 181949
11 | 40:26.00 | 5:11.10 | 181950 | 205284
12 | 45:37.10 | 3:56.47 | 205285 | 223031


Range status and errors

Selected range

Filename D:\MultiMedia\Mp3\_Redo\_ENG\Elise Velle\1995(2001) - Voyage Sortilegio [NET2-1440]\Elise Velle, Rene Dupere - Voyage.wav

Peak level 100.0 %
Extraction speed 8.4 X
Range quality 99.9 %
Test CRC 91854B11
Copy CRC 91854B11
Copy OK

No errors occurred


AccurateRip summary

Track 1 accurately ripped (confidence 1) [B16D5D5C] (AR v2)
Track 2 accurately ripped (confidence 1) [B5594577] (AR v2)
Track 3 accurately ripped (confidence 1) [842E0F43] (AR v2)
Track 4 accurately ripped (confidence 1) [DFD8123B] (AR v2)
Track 5 accurately ripped (confidence 1) [F0BEB0B7] (AR v2)
Track 6 accurately ripped (confidence 1) [82AEDE89] (AR v2)
Track 7 accurately ripped (confidence 1) [C596C83B] (AR v2)
Track 8 accurately ripped (confidence 1) [51F1A3AC] (AR v2)
Track 9 accurately ripped (confidence 1) [6442D1A5] (AR v2)
Track 10 accurately ripped (confidence 1) [ADBD20B9] (AR v2)
Track 11 accurately ripped (confidence 1) [96BE6F8D] (AR v2)
Track 12 accurately ripped (confidence 1) [6357BDAC] (AR v2)

All tracks accurately ripped

End of status report
[свернуть]

Файл CUE

REM GENRE Pop-Folk
REM DATE 1995
REM DISCID 9D0B9D0C
REM COMMENT "ExactAudioCopy v1.0b3"
PERFORMER "Elise Velle, Rene Dupere"
TITLE "Voyage"
FILE "Elise Velle, Rene Dupere - Voyage.flac" WAVE
TRACK 01 AUDIO
TITLE "Sortilegio"
PERFORMER "Elise Velle, Rene Dupere"
INDEX 01 00:00:00
TRACK 02 AUDIO
TITLE "Mayalah"
PERFORMER "Elise Velle, Rene Dupere"
INDEX 00 04:29:42
INDEX 01 04:30:10
TRACK 03 AUDIO
TITLE "Ismya Vova"
PERFORMER "Elise Velle, Rene Dupere"
INDEX 00 08:45:30
INDEX 01 08:46:57
TRACK 04 AUDIO
TITLE "Noche de luz"
PERFORMER "Elise Velle, Rene Dupere"
INDEX 00 12:11:22
INDEX 01 12:12:40
TRACK 05 AUDIO
TITLE "Post Card"
PERFORMER "Elise Velle, Rene Dupere"
INDEX 00 16:50:35
INDEX 01 16:51:27
TRACK 06 AUDIO
TITLE "Cosi va la vita"
PERFORMER "Elise Velle, Rene Dupere"
INDEX 00 21:12:22
INDEX 01 21:13:52
TRACK 07 AUDIO
TITLE "Appel"
PERFORMER "Elise Velle, Rene Dupere"
INDEX 00 25:13:30
INDEX 01 25:14:02
TRACK 08 AUDIO
TITLE "L'homme voile"
PERFORMER "Elise Velle, Rene Dupere"
INDEX 01 25:27:50
TRACK 09 AUDIO
TITLE "Naked Trees"
PERFORMER "Elise Velle, Rene Dupere"
INDEX 00 30:57:70
INDEX 01 30:58:67
TRACK 10 AUDIO
TITLE "Argentina en la piel"
PERFORMER "Elise Velle, Rene Dupere"
INDEX 00 35:25:40
INDEX 01 35:26:57
TRACK 11 AUDIO
TITLE "Kora vestryeva"
PERFORMER "Elise Velle, Rene Dupere"
INDEX 00 40:24:32
INDEX 01 40:26:00
TRACK 12 AUDIO
TITLE "Berceuse chinoise"
PERFORMER "Elise Velle, Rene Dupere"
INDEX 00 45:34:32
INDEX 01 45:37:10
[свернуть]

Лог проверки качества

AUDIOCHECKER v2.0 beta (build 457) - by Dester -
~~~~~~~~~~~~~~~~~~~~~~~~~~~~~~~~~~
-=== НЕ РЕДАКТИРУЙТЕ ЭТОТ ФАЙЛ! ===-

Путь: ...\1995(2001) - Voyage Sortilegio [NET2-1440]

1 -=- Elise Velle, Rene Dupere - Voyage.flac -=- CDDA (100%)

133742516
[свернуть]

Спектр частот

[свернуть]

Скачать Elise Velle, Rene Dupere - Voyage



password: sergych
[свернуть]
My opinion of release: 8/10
__________________
TAIFUN.Wings of Soul

Вверх
Пользователь сказал cпасибо:
tytus (13.11.2015)
Похожие темы
Тема Автор Раздел Ответов Последнее сообщение
Альбом Rene Aubry - Steppe sergych Instrumental 5 06.04.2015 21:13
Альбом Elise Velle - La Belle Est Dans Ton Camp sergych Шансон 0 26.10.2014 17:16
Релиз Rene / Рене - Лететь PUPOKIN Русская Поп-Музыка 0 18.11.2010 09:58
Альбом Rene Aubry - Derives sergych Instrumental 0 27.06.2009 21:42
Альбом Rene - Once in a lifetime PUPOKIN R&B 0 03.09.2008 20:30


Метки
1995 , ballad , chanson , elise velle rene dupere , pop , voyage

Опции темы

Ваши права в разделе
Вы не можете создавать новые темы
Вы не можете отвечать в темах
Вы не можете прикреплять вложения
Вы не можете редактировать свои сообщения

Быстрый переход



Текущее время: 19:13. Часовой пояс GMT +3.
Powered by vBulletin® Version 3.8.10
Copyright ©2000 - 2018, vBulletin Solutions, Inc. Перевод: zCarot
© 2008 - 2018 Taifun With Song
Яндекс.Метрика