TAIFUN With Song
Навигация
Вернуться   TAIFUN With Song > Music (обменник) > Другие направления музыки > Шансон
Расширенный поиск
Шансон Городской шансон, барды, и т.п.

А знаете ли Вы, что...
Какое музыкальное произведение планируется закончить исполнять к 2640 году?
«Среди произведений Джона Кейджа есть пьеса «Organ²/ASLSP (As SLow aS Possible)». Её типичное исполнение на фортепиано занимает от 20 до 70 минут, однако пояснение в скобках даёт указание играть пьесу настолько медленно, насколько это возможно. В связи с этим в 2001 году в церкви немецкого города Хальберштадт началось уникальное исполнение этой пьесы на органе, которое планируется завершить в 2640 году (через 639 лет после начала), а смена аккорда проходит примерно раз в год.»
 
Опции темы

  #1
Старый 26.10.2014, 18:16
sergych
Координатор
Досье
 
Аватар для sergych
Релиз Elise Velle - La Belle Est Dans Ton Camp


2001 - Elise Velle - La Belle Est Dans Ton Camp




Исполнитель/Artist: Elise Velle
Альбом/Album: La Belle Est Dans Ton Camp
Год/Year: 2001
Жанр/Genre: chanson, ballad, pop
Страна/Country: Канада
Рекорд-лейбл/Record label: Studio Imagene
Номер в каталоге/Catalogue #: NET2-1441
Формат/Format: Free Lossless Audio Codec (*.flac)
Качество/Quality: Lossless
Тип рипа/RIP Type: image+.cue
Продолжительность/Length: 00:52:24
Источник/Source: Собственный рип
Размер/Size: 323.2 MB

Сканы в комплекте

Треклист

01. La Belle Est Dans Ton Camp [0:03:53.65]
02. Le Passe Et La Suite [0:03:52.37]
03. Il Sera [0:04:12.18]
04. Qui Veut Les Violons... [0:03:46.40]
05. Je Ne Te Quitte Pas... J'vais Ailleurs [0:04:03.10]
06. Passage Du Hasard [0:04:14.00]
07. S'aimer... (Toi Et Toi) [0:04:32.42]
08. Lits De Papier [0:04:30.30]
09. Lasse De Coeur [0:03:32.48]
10. Peau Cellophane [0:04:44.67]
11. La Complainte De La Petite Rue [0:03:50.10]
12. A Tous Ceux... [0:03:36.08]
13. La Solitude Fait Des Pas Sur La Neige... [0:03:35.55]
[свернуть]

EAC лог

Exact Audio Copy V1.0 beta 3 from 29. August 2011

EAC extraction logfile from 25. October 2014, 11:47

Elise Velle / La Belle Est Dans Ton Camp

Used drive : ATAPI iHAS124 D Adapter: 0 ID: 2

Read mode : Secure
Utilize accurate stream : Yes
Defeat audio cache : Yes
Make use of C2 pointers : No

Read offset correction : 6
Overread into Lead-In and Lead-Out : No
Fill up missing offset samples with silence : Yes
Delete leading and trailing silent blocks : No
Null samples used in CRC calculations : Yes
Used interface : Installed external ASPI interface

Used output format : User Defined Encoder
Selected bitrate : 1024 kBit/s
Quality : High
Add ID3 tag : No
Command line compressor : C:\Program Files (x86)\Exact Audio Copy\Flac\flac.exe
Additional command line options : -6 -V -T "ARTIST=%artist%" -T "TITLE=%title%" -T "ALBUM=%albumtitle%" -T "DATE=%year%" -T "TRACKNUMBER=%tracknr%" -T "GENRE=%genre%" -T "COMMENT=%comment%" -T "BAND=%albuminterpret%" -T "COMPOSER=%composer%" %haslyrics%--tag-from-file=LYRICS="%lyricsfile%"%haslyrics% -T "DISCNUMBER=%cdnumber%" -T "TOTALDISCS=%totalcds%" -T "TOTALTRACKS=%numtracks%" %hascover%--picture="%coverfile%"%hascover% %source% -o %dest%


TOC of the extracted CD

Track | Start | Length | Start sector | End sector
---------------------------------------------------------
1 | 0:00.00 | 3:53.65 | 0 | 17539
2 | 3:53.65 | 3:52.37 | 17540 | 34976
3 | 7:46.27 | 4:12.18 | 34977 | 53894
4 | 11:58.45 | 3:46.40 | 53895 | 70884
5 | 15:45.10 | 4:03.10 | 70885 | 89119
6 | 19:48.20 | 4:14.00 | 89120 | 108169
7 | 24:02.20 | 4:32.42 | 108170 | 128611
8 | 28:34.62 | 4:30.30 | 128612 | 148891
9 | 33:05.17 | 3:32.48 | 148892 | 164839
10 | 36:37.65 | 4:44.67 | 164840 | 186206
11 | 41:22.57 | 3:50.10 | 186207 | 203466
12 | 45:12.67 | 3:36.08 | 203467 | 219674
13 | 48:49.00 | 3:35.55 | 219675 | 235854


Range status and errors

Selected range

Filename C:\mm\Elise Velle\2001 - La Belle Est Dans Ton Camp [NET2-141]\Elise Velle - La Belle Est Dans Ton Camp.wav

Peak level 100.0 %
Extraction speed 8.6 X
Range quality 99.9 %
Test CRC 026DC2F3
Copy CRC 026DC2F3
Copy OK

No errors occurred


AccurateRip summary

Track 1 accurately ripped (confidence 1) [65B57FC9] (AR v1)
Track 2 accurately ripped (confidence 1) [1E09986C] (AR v1)
Track 3 accurately ripped (confidence 1) [AD710660] (AR v1)
Track 4 accurately ripped (confidence 1) [A728D462] (AR v1)
Track 5 accurately ripped (confidence 1) [24D8B231] (AR v1)
Track 6 accurately ripped (confidence 1) [A7242564] (AR v1)
Track 7 accurately ripped (confidence 1) [DBE9DFFD] (AR v1)
Track 8 accurately ripped (confidence 1) [7EB1CF72] (AR v1)
Track 9 accurately ripped (confidence 1) [3AE917EB] (AR v1)
Track 10 accurately ripped (confidence 1) [6AF24339] (AR v1)
Track 11 accurately ripped (confidence 1) [6EB56BBF] (AR v1)
Track 12 accurately ripped (confidence 1) [B332A4FB] (AR v1)
Track 13 accurately ripped (confidence 1) [656AF20B] (AR v1)

All tracks accurately ripped

End of status report
[свернуть]

Файл CUE

REM GENRE Chanson
REM DATE 2001
REM DISCID BF0C480D
REM COMMENT "ExactAudioCopy v1.0b3"
PERFORMER "Elise Velle"
TITLE "La Belle Est Dans Ton Camp"
FILE "Elise Velle - La Belle Est Dans Ton Camp.flac" WAVE
TRACK 01 AUDIO
TITLE "La Belle Est Dans Ton Camp"
PERFORMER "Elise Velle"
INDEX 01 00:00:00
TRACK 02 AUDIO
TITLE "Le Passe Et La Suite"
PERFORMER "Elise Velle"
INDEX 00 03:52:12
INDEX 01 03:53:65
TRACK 03 AUDIO
TITLE "Il Sera"
PERFORMER "Elise Velle"
INDEX 00 07:44:10
INDEX 01 07:46:27
TRACK 04 AUDIO
TITLE "Qui Veut Les Violons..."
PERFORMER "Elise Velle"
INDEX 00 11:56:20
INDEX 01 11:58:45
TRACK 05 AUDIO
TITLE "Je Ne Te Quitte Pas... J'vais Ailleurs"
PERFORMER "Elise Velle"
INDEX 00 15:43:70
INDEX 01 15:45:10
TRACK 06 AUDIO
TITLE "Passage Du Hasard"
PERFORMER "Elise Velle"
INDEX 00 19:46:35
INDEX 01 19:48:20
TRACK 07 AUDIO
TITLE "S'aimer... (Toi Et Toi)"
PERFORMER "Elise Velle"
INDEX 00 24:00:17
INDEX 01 24:02:20
TRACK 08 AUDIO
TITLE "Lits De Papier"
PERFORMER "Elise Velle"
INDEX 01 28:34:62
TRACK 09 AUDIO
TITLE "Lasse De Coeur"
PERFORMER "Elise Velle"
INDEX 00 33:02:42
INDEX 01 33:05:17
TRACK 10 AUDIO
TITLE "Peau Cellophane"
PERFORMER "Elise Velle"
INDEX 01 36:37:65
TRACK 11 AUDIO
TITLE "La Complainte De La Petite Rue"
PERFORMER "Elise Velle"
INDEX 00 41:20:02
INDEX 01 41:22:57
TRACK 12 AUDIO
TITLE "A Tous Ceux..."
PERFORMER "Elise Velle"
INDEX 00 45:09:40
INDEX 01 45:12:67
TRACK 13 AUDIO
TITLE "La Solitude Fait Des Pas Sur La Neige..."
PERFORMER "Elise Velle"
INDEX 00 48:47:62
INDEX 01 48:49:00
[свернуть]

Лог проверки качества

AUDIOCHECKER v2.0 beta (build 457) - by Dester -
~~~~~~~~~~~~~~~~~~~~~~~~~~~~~~~~~~
-=== НЕ РЕДАКТИРУЙТЕ ЭТОТ ФАЙЛ! ===-

Путь: ...\2001 - La Belle Est Dans Ton Camp [NET2-141]

1 -=- Elise Velle - La Belle Est Dans Ton Camp.flac -=- CDDA (100%)

102749572
[свернуть]

Спектр частот

[свернуть]

Скачать Elise Velle - La Belle Est Dans Ton Camp



password: sergych
[свернуть]
My opinion of release: 8/10
__________________
TAIFUN.Wings of Soul

Вверх
Похожие темы
Тема Автор Раздел Ответов Последнее сообщение
Релиз Belle Histoire - Dreamers PUPOKIN Alternative Rock 0 19.07.2012 10:29
Релиз Belle and Sebastian - Write About Love PUPOKIN Зарубежная Поп-Музыка 0 12.10.2010 11:34
Релиз A Camp - Colonia PUPOKIN Зарубежная Поп-Музыка 0 14.01.2009 10:55
BELLE EPOQUE - Bamalama PUPOKIN Видеоклипы 0 08.12.2008 23:49
Сборник Joe Dassin - Dans Les Yeux d'Emilie antosha Зарубежная Поп-Музыка 0 24.09.2008 14:43


Метки
2001 , ballad , chanson , elise velle , la belle est dans ton camp , pop

Опции темы

Ваши права в разделе
Вы не можете создавать новые темы
Вы не можете отвечать в темах
Вы не можете прикреплять вложения
Вы не можете редактировать свои сообщения

Быстрый переход



Текущее время: 03:35. Часовой пояс GMT +3.
Powered by vBulletin® Version 3.8.10
Copyright ©2000 - 2018, vBulletin Solutions, Inc. Перевод: zCarot
© 2008 - 2018 Taifun With Song
Яндекс.Метрика