TAIFUN With Song
Навигация
Шансон Городской шансон, барды, и т.п.

А знаете ли Вы, что...
Каким образом в Древнем Китае для определения эталона длины применяли колокол?
«В Древнем Китае эталоном меры длины служил специальный колокол, настроенный на заданную высоту звучания. В другом приспособлении натягивалась струна, чтобы её звук соответствовал данной высоте, и получившаяся длина струны принималась за эталон.»
 
Опции темы

  #1
Старый 21.09.2014, 17:46
sergych
Координатор
Досье
 
Аватар для sergych
Релиз Jacques Brel - Infiniment


2004 - Jacques Brel - Infiniment




Исполнитель/Artist: Jacques Brel
Альбом/Album: Infiniment
Год/Year: 2004
Жанр/Genre: Chanson
Страна/Country: Россия
Рекорд-лейбл/Record label: Barclay / Universal
Номер в каталоге/Catalogue #: 4605026013179
Формат/Format: Free Lossless Audio Codec (*.flac)
Качество/Quality: Lossless
Тип рипа/RIP Type: image+.cue
Продолжительность/Length: 01:06:26
Источник/Source: Собственный рип
Размер/Size: 424.3 MB

Сканы в комплекте

Треклист

01. L'Amour Est Mort [0:04:04.26]
02. La Cathedrale [0:04:47.69]
03. Madeleine [0:02:40.68]
04. Le Plat Pays [0:02:43.25]
05. Mathilde [0:02:36.55]
06. La Valse A Mille Temps [0:03:50.56]
07. Les Vieux [0:04:06.15]
08. Les Bourgeois [0:02:54.02]
09. Ces Gens-Là [0:04:41.00]
10. Les Bonbons [0:03:31.47]
11. Vesoul [0:03:07.74]
12. Le Moribond [0:03:07.21]
13. Au Suivant [0:03:07.37]
14. Amsterdam [0:03:20.26]
15. Les Marquises [0:03:53.61]
16. Quand On N'A Que L'Amour [0:02:34.31]
17. La Chanson Des Vieux Amants [0:04:29.49]
18. La Quete [0:02:38.21]
19. Ne Me Quitte Pas [0:04:09.71]
[свернуть]

youtube.com

[свернуть]

EAC лог

Exact Audio Copy V1.0 beta 3 from 29. August 2011

EAC extraction logfile from 21. September 2014, 19:29

Jacques Brel / Infiniment - Best Of Brel (Remastered)

Used drive : ATAPI iHAS124 D Adapter: 0 ID: 2

Read mode : Secure
Utilize accurate stream : Yes
Defeat audio cache : Yes
Make use of C2 pointers : No

Read offset correction : 6
Overread into Lead-In and Lead-Out : No
Fill up missing offset samples with silence : Yes
Delete leading and trailing silent blocks : No
Null samples used in CRC calculations : Yes
Used interface : Installed external ASPI interface

Used output format : User Defined Encoder
Selected bitrate : 1024 kBit/s
Quality : High
Add ID3 tag : No
Command line compressor : C:\Program Files (x86)\Exact Audio Copy\Flac\flac.exe
Additional command line options : -6 -V -T "ARTIST=%artist%" -T "TITLE=%title%" -T "ALBUM=%albumtitle%" -T "DATE=%year%" -T "TRACKNUMBER=%tracknr%" -T "GENRE=%genre%" -T "COMMENT=%comment%" -T "BAND=%albuminterpret%" -T "COMPOSER=%composer%" %haslyrics%--tag-from-file=LYRICS="%lyricsfile%"%haslyrics% -T "DISCNUMBER=%cdnumber%" -T "TOTALDISCS=%totalcds%" -T "TOTALTRACKS=%numtracks%" %hascover%--picture="%coverfile%"%hascover% %source% -o %dest%


TOC of the extracted CD

Track | Start | Length | Start sector | End sector
---------------------------------------------------------
1 | 0:00.00 | 4:04.26 | 0 | 18325
2 | 4:04.26 | 4:47.69 | 18326 | 39919
3 | 8:52.20 | 2:40.68 | 39920 | 51987
4 | 11:33.13 | 2:43.25 | 51988 | 64237
5 | 14:16.38 | 2:36.55 | 64238 | 75992
6 | 16:53.18 | 3:50.56 | 75993 | 93298
7 | 20:43.74 | 4:06.15 | 93299 | 111763
8 | 24:50.14 | 2:54.02 | 111764 | 124815
9 | 27:44.16 | 4:41.00 | 124816 | 145890
10 | 32:25.16 | 3:31.47 | 145891 | 161762
11 | 35:56.63 | 3:07.74 | 161763 | 175861
12 | 39:04.62 | 3:07.21 | 175862 | 189907
13 | 42:12.08 | 3:07.37 | 189908 | 203969
14 | 45:19.45 | 3:20.26 | 203970 | 218995
15 | 48:39.71 | 3:53.61 | 218996 | 236531
16 | 52:33.57 | 2:34.31 | 236532 | 248112
17 | 55:08.13 | 4:29.49 | 248113 | 268336
18 | 59:37.62 | 2:38.21 | 268337 | 280207
19 | 62:16.08 | 4:09.71 | 280208 | 298953


Range status and errors

Selected range

Filename D:\MultiMedia\Mp3\_Redo\_ENG\Jacques Brel\2004 - Infiniment [4605026013179]\Jacques Brel - Infiniment.wav

Peak level 100.0 %
Extraction speed 9.7 X
Range quality 100.0 %
Test CRC 49C0A412
Copy CRC 49C0A412
Copy OK

No errors occurred


AccurateRip summary

Track 1 cannot be verified as accurate (confidence 12) [A975DC2E], AccurateRip returned [1C2B35DC] (AR v2)
Track 2 cannot be verified as accurate (confidence 11) [6134370E], AccurateRip returned [B9B06044] (AR v2)
Track 3 cannot be verified as accurate (confidence 12) [76E26227], AccurateRip returned [10FCDC6A] (AR v2)
Track 4 cannot be verified as accurate (confidence 12) [F84EE05D], AccurateRip returned [DC977472] (AR v2)
Track 5 cannot be verified as accurate (confidence 12) [3B30A9C4], AccurateRip returned [ACC39444] (AR v2)
Track 6 cannot be verified as accurate (confidence 12) [425D0275], AccurateRip returned [4D268ECE] (AR v2)
Track 7 cannot be verified as accurate (confidence 12) [8B560FF9], AccurateRip returned [6BA83065] (AR v2)
Track 8 cannot be verified as accurate (confidence 12) [8D5D3E19], AccurateRip returned [733BB091] (AR v2)
Track 9 cannot be verified as accurate (confidence 12) [0A0FAF83], AccurateRip returned [7C6EFFD0] (AR v2)
Track 10 cannot be verified as accurate (confidence 12) [A047E23E], AccurateRip returned [CAC75C4B] (AR v2)
Track 11 cannot be verified as accurate (confidence 12) [F997A3CB], AccurateRip returned [B5F0A045] (AR v2)
Track 12 cannot be verified as accurate (confidence 12) [6C20DDC2], AccurateRip returned [232D6140] (AR v2)
Track 13 cannot be verified as accurate (confidence 12) [6EAB8D83], AccurateRip returned [B22CBFEB] (AR v2)
Track 14 cannot be verified as accurate (confidence 12) [E0E56A33], AccurateRip returned [7B8EBF2B] (AR v2)
Track 15 cannot be verified as accurate (confidence 12) [21F920D0], AccurateRip returned [795D5D7A] (AR v2)
Track 16 cannot be verified as accurate (confidence 12) [BEF928DA], AccurateRip returned [2558657B] (AR v2)
Track 17 cannot be verified as accurate (confidence 12) [9B08518A], AccurateRip returned [603292BC] (AR v2)
Track 18 cannot be verified as accurate (confidence 12) [43DBC916], AccurateRip returned [DDFEA711] (AR v2)
Track 19 cannot be verified as accurate (confidence 12) [BD916633], AccurateRip returned [6DA1DC3B] (AR v2)

No tracks could be verified as accurate
You may have a different pressing from the one(s) in the database

End of status report
[свернуть]

Файл CUE

REM GENRE Chanson
REM DATE 2004
REM DISCID 180F9213
REM COMMENT "ExactAudioCopy v1.0b3"
PERFORMER "Jacques Brel"
TITLE "Infiniment"
FILE "Jacques Brel - Infiniment.flac" WAVE
TRACK 01 AUDIO
TITLE "L'Amour Est Mort"
PERFORMER "Jacques Brel"
INDEX 01 00:00:00
TRACK 02 AUDIO
TITLE "La Cathedrale"
PERFORMER "Jacques Brel"
INDEX 00 04:02:56
INDEX 01 04:04:26
TRACK 03 AUDIO
TITLE "Madeleine"
PERFORMER "Jacques Brel"
INDEX 00 08:50:38
INDEX 01 08:52:20
TRACK 04 AUDIO
TITLE "Le Plat Pays"
PERFORMER "Jacques Brel"
INDEX 00 11:31:43
INDEX 01 11:33:13
TRACK 05 AUDIO
TITLE "Mathilde"
PERFORMER "Jacques Brel"
INDEX 00 14:14:66
INDEX 01 14:16:38
TRACK 06 AUDIO
TITLE "La Valse A Mille Temps"
PERFORMER "Jacques Brel"
INDEX 00 16:51:43
INDEX 01 16:53:18
TRACK 07 AUDIO
TITLE "Les Vieux"
PERFORMER "Jacques Brel"
INDEX 00 20:42:16
INDEX 01 20:43:74
TRACK 08 AUDIO
TITLE "Les Bourgeois"
PERFORMER "Jacques Brel"
INDEX 00 24:48:37
INDEX 01 24:50:14
TRACK 09 AUDIO
TITLE "Ces Gens-La"
PERFORMER "Jacques Brel"
INDEX 00 27:42:40
INDEX 01 27:44:16
TRACK 10 AUDIO
TITLE "Les Bonbons"
PERFORMER "Jacques Brel"
INDEX 00 32:23:43
INDEX 01 32:25:16
TRACK 11 AUDIO
TITLE "Vesoul"
PERFORMER "Jacques Brel"
INDEX 00 35:55:17
INDEX 01 35:56:63
TRACK 12 AUDIO
TITLE "Le Moribond"
PERFORMER "Jacques Brel"
INDEX 00 39:03:12
INDEX 01 39:04:62
TRACK 13 AUDIO
TITLE "Au Suivant"
PERFORMER "Jacques Brel"
INDEX 00 42:10:31
INDEX 01 42:12:08
TRACK 14 AUDIO
TITLE "Amsterdam"
PERFORMER "Jacques Brel"
INDEX 00 45:17:63
INDEX 01 45:19:45
TRACK 15 AUDIO
TITLE "Les Marquises"
PERFORMER "Jacques Brel"
INDEX 00 48:38:24
INDEX 01 48:39:71
TRACK 16 AUDIO
TITLE "Quand On N'A Que L'Amour"
PERFORMER "Jacques Brel"
INDEX 00 52:32:09
INDEX 01 52:33:57
TRACK 17 AUDIO
TITLE "La Chanson Des Vieux Amants"
PERFORMER "Jacques Brel"
INDEX 00 55:06:39
INDEX 01 55:08:13
TRACK 18 AUDIO
TITLE "La Quete"
PERFORMER "Jacques Brel"
INDEX 00 59:36:09
INDEX 01 59:37:62
TRACK 19 AUDIO
TITLE "Ne Me Quitte Pas"
PERFORMER "Jacques Brel"
INDEX 00 62:14:32
INDEX 01 62:16:08
[свернуть]

Лог проверки качества

AUDIOCHECKER v2.0 beta (build 457) - by Dester -
~~~~~~~~~~~~~~~~~~~~~~~~~~~~~~~~~~
-=== НЕ РЕДАКТИРУЙТЕ ЭТОТ ФАЙЛ! ===-

Путь: ...\2004 - Infiniment [4605026013179]

1 -=- Jacques Brel - Infiniment.flac -=- CDDA (100%)

157621972
[свернуть]

Спектр частот

[свернуть]

Скачать Jacques Brel - Infiniment



password: sergych
[свернуть]
My opinion of release: 9/10
__________________
TAIFUN.Wings of Soul

Вверх
Пользователь сказал cпасибо:
TAIFUN (29.09.2014)
Похожие темы
Тема Автор Раздел Ответов Последнее сообщение
Альбом Peter Jacques Band - Welcome Back PUPOKIN Disco 0 03.09.2010 09:48


Метки
2004 , chanson , infiniment , jacques brel

Опции темы

Ваши права в разделе
Вы не можете создавать новые темы
Вы не можете отвечать в темах
Вы не можете прикреплять вложения
Вы не можете редактировать свои сообщения

Быстрый переход



Текущее время: 19:01. Часовой пояс GMT +3.
Powered by vBulletin® Version 3.8.10
Copyright ©2000 - 2018, vBulletin Solutions, Inc. Перевод: zCarot
© 2008 - 2018 Taifun With Song
Яндекс.Метрика