TAIFUN With Song
Навигация
Вернуться   TAIFUN With Song > Music (обменник) > Rock > Hard Rock
Расширенный поиск
Hard Rock То, что может восприниматься слушателем как «тяжесть» в хард-роке, достигается, в частности, за счет специфического звучания электрогитары (с такими эффектами, как например, дисторшн и овердрайв) и работы ритм-секции. «Классический» хард-рок обрёл формы в конце 1960-х — начале 1970-х годов в Великобритании. Классический хард-рок отличается от хеви-металла более мелодичным звучанием.

А знаете ли Вы, что...
Зачем группа Van Halen в своём райдере требовала предоставить M&M's, но убрать все коричневые конфеты?
«Американская хард-рок группа Van Halen выезжала на гастроли с большим количеством сценического оборудования, так как их шоу были одними из самых сложных в техническом отношении и насыщены множеством спецэффектов. В райдере группы одним из требований было поставить на стол в гримёрке блюдо с M&M's, из которого должны быть убраны все коричневые конфеты. Объяснялся этот пункт вовсе не повышенной капризностью рокеров — если организаторы концерта не выполняли требование об M&M's, это говорило об их невнимательном отношении к деталям райдера. Значит, и другие его пункты могли быть проигнорированы, что могло создать проблемы с качественным проведением шоу и его безопасностью.»
 
Опции темы

  #1
Старый 03.06.2018, 04:49
sergych
Координатор
Досье
 
Аватар для sergych
Релиз Aerosmith - Just Push Play


2001 - Aerosmith - Just Push Play




Исполнитель/Artist: Aerosmith
Альбом/Album: Just Push Play
Год/Year: 2001
Жанр/Genre: Hard rock, glam metal, blues rock
Страна/Country: Япония
Рекорд-лейбл/Record label: SME Records
Номер в каталоге/Catalogue #: SRCS 2440
Формат/Format: Free Lossless Audio Codec (*.flac)
Качество/Quality: Lossless
Тип рипа/RIP Type: image+.cue
Продолжительность/Length: 00:59:15
Источник/Source: Собственный рип
Размер/Size: 518.1 MB

Сканы в комплекте

Треклист

01. Beyond Beautiful [0:04:45.17]
02. Just Push Play [0:03:51.15]
03. Jaded [0:03:35.43]
04. Fly Away From Here [0:05:01.57]
05. Trip Hoppin' [0:04:27.00]
06. Sunshine [0:03:37.55]
07. Under My Skin [0:03:47.23]
08. Luv Lies [0:04:26.35]
09. Outta Your Head [0:03:22.47]
10. Drop Dead Gorgeous [0:03:42.42]
11. Light Inside [0:03:34.71]
12. Avant Garden [0:04:52.37]
13. Won't Let You Down [0:03:38.18]
14. I Don't Want To Miss A Thing [0:06:32.25]
[свернуть]

youtube.com

[свернуть]

Исполнители/Performers

Steven Tyler – lead vocals, piano, Squeezebox, harmonica, percussion, additional guitar and additional drums, conga, backing vocals on "Drop Dead Gorgeous", mixing, production
Joe Perry – guitar, slide guitar, pedal steel guitar, hurdy-gurdy, backing vocals, lead vocals on "Drop Dead Gorgeous," mixing, production
Brad Whitford – guitar
Tom Hamilton – bass, fretless bass
Joey Kramer – drums

Additional musicians
Jim Cox – piano on "Fly Away From Here"
Paul Santo – keyboards Kurzweil on "Fly Away from Here", Hammond organ on "Avant Garden"
Tower of Power – horns on "Trip Hoppin'"
Dan Higgins – clarinet, saxophone on "Trip Hoppin'"
Chelsea Tyler – backing vocals on "Under My Skin"
Paul Caruso – loop programming on "Drop Dead Gorgeous"
Liv Tyler – whispers on "Avant Garden"
Tony Perry - Scratching on "Just Push Play"
[свернуть]

EAC лог

Exact Audio Copy V1.3 from 2. September 2016

EAC extraction logfile from 2. June 2018, 16:48

Aerosmith / Just Push Play

Used drive : ATAPI iHAS124 D Adapter: 0 ID: 2

Read mode : Secure
Utilize accurate stream : Yes
Defeat audio cache : Yes
Make use of C2 pointers : No

Read offset correction : 6
Overread into Lead-In and Lead-Out : No
Fill up missing offset samples with silence : Yes
Delete leading and trailing silent blocks : No
Null samples used in CRC calculations : Yes
Used interface : Installed external ASPI interface

Used output format : User Defined Encoder
Selected bitrate : 1024 kBit/s
Quality : High
Add ID3 tag : No
Command line compressor : C:\Program Files (x86)\Exact Audio Copy\Flac\flac.exe
Additional command line options : -6 -V -T "ARTIST=%artist%" -T "TITLE=%title%" -T "ALBUM=%albumtitle%" -T "DATE=%year%" -T "TRACKNUMBER=%tracknr%" -T "GENRE=%genre%" -T "COMMENT=%comment%" -T "BAND=%albuminterpret%" -T "ALBUMARTIST=%albuminterpret%" -T "COMPOSER=%composer%" %haslyrics%--tag-from-file=LYRICS="%lyricsfile%"%haslyrics% -T "DISCNUMBER=%cdnumber%" -T "TOTALDISCS=%totalcds%" -T "TOTALTRACKS=%numtracks%" %hascover%--picture="%coverfile%"%hascover% %source% -o %dest%


TOC of the extracted CD

Track | Start | Length | Start sector | End sector
---------------------------------------------------------
1 | 0:00.00 | 4:45.17 | 0 | 21391
2 | 4:45.17 | 3:51.15 | 21392 | 38731
3 | 8:36.32 | 3:35.43 | 38732 | 54899
4 | 12:12.00 | 5:01.57 | 54900 | 77531
5 | 17:13.57 | 4:27.00 | 77532 | 97556
6 | 21:40.57 | 3:37.55 | 97557 | 113886
7 | 25:18.37 | 3:47.23 | 113887 | 130934
8 | 29:05.60 | 4:26.35 | 130935 | 150919
9 | 33:32.20 | 3:22.47 | 150920 | 166116
10 | 36:54.67 | 3:42.42 | 166117 | 182808
11 | 40:37.34 | 3:34.71 | 182809 | 198929
12 | 44:12.30 | 4:52.37 | 198930 | 220866
13 | 49:04.67 | 3:38.18 | 220867 | 237234
14 | 52:43.10 | 6:32.25 | 237235 | 266659


Range status and errors

Selected range

Filename C:\mm\Aerosmith\2001 - Just Push Play [SRCS 2440]\Aerosmith - Just Push Play.wav

Peak level 100.0 %
Extraction speed 1.8 X
Range quality 100.0 %
Test CRC 1E5E5554
Copy CRC 1E5E5554
Copy OK

No errors occurred

End of status report

---- CUETools DB Plugin V2.1.6

[CTDB TOCID: UbStmXotPeqNw0vjVbxlu9mA7xI-] found
Submit result: UbStmXotPeqNw0vjVbxlu9mA7xI- has been confirmed
Track | CTDB Status
1 | (189/191) Accurately ripped
2 | (188/191) Accurately ripped
3 | (189/191) Accurately ripped
4 | (189/191) Accurately ripped
5 | (189/191) Accurately ripped
6 | (188/191) Accurately ripped
7 | (188/191) Accurately ripped
8 | (188/191) Accurately ripped
9 | (188/191) Accurately ripped
10 | (187/191) Accurately ripped
11 | (188/191) Accurately ripped
12 | (189/191) Accurately ripped
13 | (188/191) Accurately ripped
14 | (186/191) Accurately ripped
[свернуть]

Файл CUE

REM GENRE "Hard Rock"
REM DATE 2001
REM DISCID B20DE30E
REM COMMENT "ExactAudioCopy v1.3"
PERFORMER "Aerosmith"
TITLE "Just Push Play"
REM COMPOSER ""
FILE "Aerosmith - Just Push Play.flac" WAVE
TRACK 01 AUDIO
TITLE "Beyond Beautiful"
PERFORMER "Aerosmith"
REM COMPOSER ""
INDEX 01 00:00:00
TRACK 02 AUDIO
TITLE "Just Push Play"
PERFORMER "Aerosmith"
REM COMPOSER ""
INDEX 01 04:45:17
TRACK 03 AUDIO
TITLE "Jaded"
PERFORMER "Aerosmith"
REM COMPOSER ""
INDEX 01 08:36:32
TRACK 04 AUDIO
TITLE "Fly Away From Here"
PERFORMER "Aerosmith"
REM COMPOSER ""
INDEX 00 12:10:60
INDEX 01 12:12:00
TRACK 05 AUDIO
TITLE "Trip Hoppin'"
PERFORMER "Aerosmith"
REM COMPOSER ""
INDEX 01 17:13:57
TRACK 06 AUDIO
TITLE "Sunshine"
PERFORMER "Aerosmith"
REM COMPOSER ""
INDEX 01 21:40:57
TRACK 07 AUDIO
TITLE "Under My Skin"
PERFORMER "Aerosmith"
REM COMPOSER ""
INDEX 01 25:18:37
TRACK 08 AUDIO
TITLE "Luv Lies"
PERFORMER "Aerosmith"
REM COMPOSER ""
INDEX 00 29:04:30
INDEX 01 29:05:60
TRACK 09 AUDIO
TITLE "Outta Your Head"
PERFORMER "Aerosmith"
REM COMPOSER ""
INDEX 01 33:32:20
TRACK 10 AUDIO
TITLE "Drop Dead Gorgeous"
PERFORMER "Aerosmith"
REM COMPOSER ""
INDEX 01 36:54:67
TRACK 11 AUDIO
TITLE "Light Inside"
PERFORMER "Aerosmith"
REM COMPOSER ""
INDEX 01 40:37:34
TRACK 12 AUDIO
TITLE "Avant Garden"
PERFORMER "Aerosmith"
REM COMPOSER ""
INDEX 01 44:12:30
TRACK 13 AUDIO
TITLE "Won't Let You Down"
PERFORMER "Aerosmith"
REM COMPOSER ""
INDEX 01 49:04:67
TRACK 14 AUDIO
TITLE "I Don't Want To Miss A Thing"
PERFORMER "Aerosmith"
REM COMPOSER ""
INDEX 00 52:41:47
INDEX 01 52:43:10
[свернуть]

Лог проверки качества

AUDIOCHECKER v2.0 beta (build 457) - by Dester -
~~~~~~~~~~~~~~~~~~~~~~~~~~~~~~~~~~
-=== НЕ РЕДАКТИРУЙТЕ ЭТОТ ФАЙЛ! ===-

Путь: ...\2001 - Just Push Play [SRCS 2440]

1 -=- Aerosmith - Just Push Play.flac -=- CDDA (100%)

123354516
[свернуть]

Спектр частот

[свернуть]

Скачать Aerosmith - Just Push Play



password: sergych
[свернуть]

Контрольная сумма (хеш-сумма) архива

MD5: afdfc78c9adbad1f73f4c54dc459158e
[свернуть]
My opinion of release: 9/10
__________________
TAIFUN.Wings of Soul

Вверх
2 пользователя(ей) сказали cпасибо:
Lighting1981 (04.06.2018), swint68 (03.06.2018)
Похожие темы
Тема Автор Раздел Ответов Последнее сообщение
Сборник Aerosmith - The Best Of Aerosmith {20th Century Masters. The Millennium Collection} sergych Hard Rock 0 04.08.2015 21:49
Сборник Aerosmith - Young Lust: The Aerosmith Anthology aheron Hard Rock 0 30.05.2013 22:32
Релиз Push - Global Age PUPOKIN Trance 0 03.06.2009 09:33
Сборник Aerosmith - O, Yeah! (Ultimate Aerosmith Hits) sergych Hard Rock 0 31.07.2008 17:28
Сборник Aerosmith - The Very Best Of Aerosmith (Devil's Got A New Disguise) aheron Hard Rock 0 31.07.2008 17:28


Метки
2001 , aerosmith , blues rock , glam metal , hard rock , just push play

Опции темы

Ваши права в разделе
Вы не можете создавать новые темы
Вы не можете отвечать в темах
Вы не можете прикреплять вложения
Вы не можете редактировать свои сообщения

Быстрый переход



Текущее время: 14:29. Часовой пояс GMT +3.
Powered by vBulletin® Version 3.8.10
Copyright ©2000 - 2018, vBulletin Solutions, Inc. Перевод: zCarot
© 2008 - 2018 Taifun With Song
Яндекс.Метрика