TAIFUN With Song
Навигация
R&B Ссылки на музыку в этом стиле

А знаете ли Вы, что...
Какая песня группы «Ария» одноимённа девизу итальянских фашистов?
«"Воля и разум" — это девиз итальянских фашистов. Авторы одноимённой песни группы "Ария" об этом не знали, равно как не знали и члены худсовета, одобрившие запись песни для пластинки.»
 
Опции темы

  #1
Старый 14.04.2018, 14:43
sergych
Координатор
Досье
 
Аватар для sergych
Релиз Kelly Rowland - Simply Deep


2002 - Kelly Rowland - Simply Deep




Исполнитель/Artist: Kelly Rowland
Альбом/Album: Simply Deep
Год/Year: 2002
Жанр/Genre: Pop, R&B
Страна/Country: Австрия
Рекорд-лейбл/Record label: Sony / Columbia
Номер в каталоге/Catalogue #: 509604 2
Формат/Format: Free Lossless Audio Codec (*.flac)
Качество/Quality: Lossless
Тип рипа/RIP Type: image+.cue
Продолжительность/Length: 00:56:59
Источник/Source: Собственный рип
Размер/Size: 435.8 MB

Сканы в комплекте

Треклист

01. Stole [0:04:09.60]
02. Dilemma (feat. Nelly) [0:04:49.50]
03. Haven't Told You [0:03:42.37]
04. Can't Nobody [0:04:04.10]
05. Love / Hate [0:03:08.25]
06. Simply Deep (feat. Solange Knowles) [0:03:22.38]
07. (Love Lives In) Strange Places [0:03:32.40]
08. Obsession [0:03:36.30]
09. Heaven [0:03:58.72]
10. Past 12 [0:03:28.10]
11. Everytime You Walk Out That Door [0:04:09.13]
12. Train On A Track [0:03:43.05]
13. Beyond Imagination [0:03:21.37]

Bonus tracks:
14. Make U Wanna Stay (feat. Joe Budden) [0:04:08.64]
15. No Coincidence [0:03:43.51]
[свернуть]

youtube.com

[свернуть]

Исполнители/Performers

Vocals – Kelly Rowland
Vocal assistance – Sherrie Ford, Jeanette Olsson

Instruments:
Acoustic guitar – Billy Mann
Cello – Kati Raitinen, Peter Tornblom
Electric guitar – Nick Moroch
Guitar – Romeo Antonio, Mats Berntoft, Svein H. Martinsen, Isaac Phillips, Sergio Ponzo, Stanka Simeonova
Viola – Tonstudio Bauer, Torbjorn Helander, Mikael Sjogren
Bass – Mark J. Feist
Drums – Mark J. Feist
Violin – Christian Bergqvist, Ulrika Frankmar, Jan Isaksson, Roger Johnsson, Stanka Simeonova, Stanka Simeonova, Monika Stankkoliska
[свернуть]

EAC лог

Exact Audio Copy V1.3 from 2. September 2016

EAC extraction logfile from 14. April 2018, 11:13

Kelly Rowland / Simply Deep

Used drive : ATAPI iHAS124 D Adapter: 0 ID: 2

Read mode : Secure
Utilize accurate stream : Yes
Defeat audio cache : Yes
Make use of C2 pointers : No

Read offset correction : 6
Overread into Lead-In and Lead-Out : No
Fill up missing offset samples with silence : Yes
Delete leading and trailing silent blocks : No
Null samples used in CRC calculations : Yes
Used interface : Installed external ASPI interface

Used output format : User Defined Encoder
Selected bitrate : 1024 kBit/s
Quality : High
Add ID3 tag : No
Command line compressor : C:\Program Files (x86)\Exact Audio Copy\Flac\flac.exe
Additional command line options : -6 -V -T "ARTIST=%artist%" -T "TITLE=%title%" -T "ALBUM=%albumtitle%" -T "DATE=%year%" -T "TRACKNUMBER=%tracknr%" -T "GENRE=%genre%" -T "COMMENT=%comment%" -T "BAND=%albuminterpret%" -T "ALBUMARTIST=%albuminterpret%" -T "COMPOSER=%composer%" %haslyrics%--tag-from-file=LYRICS="%lyricsfile%"%haslyrics% -T "DISCNUMBER=%cdnumber%" -T "TOTALDISCS=%totalcds%" -T "TOTALTRACKS=%numtracks%" %hascover%--picture="%coverfile%"%hascover% %source% -o %dest%


TOC of the extracted CD

Track | Start | Length | Start sector | End sector
---------------------------------------------------------
1 | 0:00.00 | 4:09.60 | 0 | 18734
2 | 4:09.60 | 4:49.50 | 18735 | 40459
3 | 8:59.35 | 3:42.37 | 40460 | 57146
4 | 12:41.72 | 4:04.10 | 57147 | 75456
5 | 16:46.07 | 3:08.25 | 75457 | 89581
6 | 19:54.32 | 3:22.38 | 89582 | 104769
7 | 23:16.70 | 3:32.40 | 104770 | 120709
8 | 26:49.35 | 3:36.30 | 120710 | 136939
9 | 30:25.65 | 3:58.72 | 136940 | 154861
10 | 34:24.62 | 3:28.10 | 154862 | 170471
11 | 37:52.72 | 4:09.13 | 170472 | 189159
12 | 42:02.10 | 3:43.05 | 189160 | 205889
13 | 45:45.15 | 3:21.37 | 205890 | 221001
14 | 49:06.52 | 4:08.64 | 221002 | 239665
15 | 53:15.41 | 3:43.51 | 239666 | 256441
16 | 59:31.17 | 19:50.28 | 267842 | 357119


Range status and errors

Selected range

Filename C:\mm\Kelly Rowland\2002 - Simply Deep [509604 2]\Kelly Rowland - Simply Deep.wav

Peak level 100.0 %
Extraction speed 1.9 X
Range quality 100.0 %
Test CRC 41C955C8
Copy CRC 41C955C8
Copy OK

No errors occurred

End of status report

---- CUETools DB Plugin V2.1.6

[CTDB TOCID: C16DEdMq3Rj39AmpD2Ja81plwAU-] found
Submit result: already submitted
Track | CTDB Status
1 | (114/114) Accurately ripped
2 | (113/114) Accurately ripped
3 | (113/114) Accurately ripped
4 | (114/114) Accurately ripped
5 | (114/114) Accurately ripped
6 | (113/114) Accurately ripped
7 | (114/114) Accurately ripped
8 | (114/114) Accurately ripped
9 | (114/114) Accurately ripped
10 | (114/114) Accurately ripped
11 | (114/114) Accurately ripped
12 | (114/114) Accurately ripped
13 | (114/114) Accurately ripped
14 | (114/114) Accurately ripped
15 | (113/114) Accurately ripped
[свернуть]

Файл CUE

REM GENRE R&B
REM DATE 2002
REM DISCID E9129910
REM COMMENT "ExactAudioCopy v1.3"
PERFORMER "Kelly Rowland"
TITLE "Simply Deep"
REM COMPOSER ""
FILE "Kelly Rowland - Simply Deep.flac" WAVE
TRACK 01 AUDIO
TITLE "Stole"
PERFORMER "Kelly Rowland"
REM COMPOSER ""
INDEX 01 00:00:00
TRACK 02 AUDIO
TITLE "Dilemma"
PERFORMER "Kelly Rowland feat. Nelly"
REM COMPOSER ""
INDEX 01 04:09:60
TRACK 03 AUDIO
TITLE "Haven't Told You"
PERFORMER "Kelly Rowland"
REM COMPOSER ""
INDEX 01 08:59:35
TRACK 04 AUDIO
TITLE "Can't Nobody"
PERFORMER "Kelly Rowland"
REM COMPOSER ""
INDEX 01 12:41:72
TRACK 05 AUDIO
TITLE "Love/Hate"
PERFORMER "Kelly Rowland"
REM COMPOSER ""
INDEX 01 16:46:07
TRACK 06 AUDIO
TITLE "Simply Deep"
PERFORMER "Kelly Rowland feat. Solange Knowles"
REM COMPOSER ""
INDEX 01 19:54:32
TRACK 07 AUDIO
TITLE "(Love Lives In) Strange Places"
PERFORMER "Kelly Rowland"
REM COMPOSER ""
INDEX 01 23:16:70
TRACK 08 AUDIO
TITLE "Obsession"
PERFORMER "Kelly Rowland"
REM COMPOSER ""
INDEX 00 26:48:35
INDEX 01 26:49:35
TRACK 09 AUDIO
TITLE "Heaven"
PERFORMER "Kelly Rowland"
REM COMPOSER ""
INDEX 01 30:25:65
TRACK 10 AUDIO
TITLE "Past 12"
PERFORMER "Kelly Rowland"
REM COMPOSER ""
INDEX 01 34:24:62
TRACK 11 AUDIO
TITLE "Everytime You Walk Out That Door"
PERFORMER "Kelly Rowland"
REM COMPOSER ""
INDEX 01 37:52:72
TRACK 12 AUDIO
TITLE "Train On A Track"
PERFORMER "Kelly Rowland"
REM COMPOSER ""
INDEX 01 42:02:10
TRACK 13 AUDIO
TITLE "Beyond Imagination"
PERFORMER "Kelly Rowland"
REM COMPOSER ""
INDEX 01 45:45:15
TRACK 14 AUDIO
TITLE "Make U Wanna Stay"
PERFORMER "Kelly Rowland feat. Joe Budden"
REM COMPOSER ""
INDEX 01 49:06:52
TRACK 15 AUDIO
TITLE "No Coincidence"
PERFORMER "Kelly Rowland"
REM COMPOSER ""
INDEX 01 53:15:41
[свернуть]

Лог проверки качества

AUDIOCHECKER v2.0 beta (build 457) - by Dester - [Ссылки могут видеть только зарегистрированные и активированные пользователи.]
[Only registered and activated users can see links.]
~~~~~~~~~~~~~~~~~~~~~~~~~~~~~~~~~~
-=== НЕ РЕДАКТИРУЙТЕ ЭТОТ ФАЙЛ! ===-

Путь: ...\2002 - Simply Deep [509604 2]

1 -=- Kelly Rowland - Simply Deep.flac -=- CDDA (100%)

209515028
[свернуть]

Спектр частот

[свернуть]

Скачать Kelly Rowland - Simply Deep

[Ссылки могут видеть только зарегистрированные и активированные пользователи.]
[Only registered and activated users can see links.]

password: sergych
[свернуть]

Контрольная сумма (хеш-сумма) архива

MD5: 0b6b33e6e6a23b70ab8b65fd5f061095
[свернуть]
My opinion of release: 10/10

Release info RInfo

дебютный сольник одной из бывших участниц Destiny's Child
__________________
TAIFUN.Wings of Soul

Вверх
2 пользователя(ей) сказали cпасибо:
johnsilver (20.04.2018), swint68 (18.04.2018)
Похожие темы
Тема Автор Раздел Ответов Последнее сообщение
Сборник Simply Red - Simply Red 25. The Greatest Hits sergych Зарубежная Поп-Музыка 2 11.05.2017 21:17
Релиз Kelly Rowland – Here I Am PUPOKIN R&B 0 21.07.2011 10:51
Релиз Kelly Price - Kelly PUPOKIN R&B 0 24.04.2011 10:14
Релиз Kelly Rowland - It's All Leak! PUPOKIN R&B 0 30.03.2011 11:06
Kelly Rowland - Ms. Kelly (Deluxe Edition) LUСIAN R&B 0 04.06.2008 09:19


Метки
2002 , kelly rowland , pop , r&b , simply deep

Опции темы

Ваши права в разделе
Вы не можете создавать новые темы
Вы не можете отвечать в темах
Вы не можете прикреплять вложения
Вы не можете редактировать свои сообщения

Быстрый переход



Текущее время: 11:43. Часовой пояс GMT +3.
Powered by vBulletin® Version 3.8.10
Copyright ©2000 - 2018, vBulletin Solutions, Inc. Перевод: zCarot
© 2008 - 2018 Taifun With Song
Яндекс.Метрика