TAIFUN With Song
Навигация
R&B Ссылки на музыку в этом стиле

А знаете ли Вы, что...
Зачем в Англии 19 века надевали чехлы на ножки роялей?
«В пуританской Англии 19 века из общественной жизни старательно изгонялось всё, что могло показаться хоть сколько-нибудь эротичным. Так, во время концертов на ножки роялей надевали чехлы, чтобы никто, глядя на эти голые ножки, не задумался о чём-нибудь непристойном.»
 
Опции темы

  #1
Старый 25.09.2017, 19:39
sergych
Координатор
Досье
 
Аватар для sergych
Релиз Calvin Richardson - Country Boy


1999 - Calvin Richardson - Country Boy




Исполнитель/Artist: Calvin Richardson
Альбом/Album: Country Boy
Год/Year: 1999
Жанр/Genre: R&B, soul, neo soul
Страна/Country: Япония
Рекорд-лейбл/Record label: Universal
Номер в каталоге/Catalogue #: MVU-24055
Формат/Format: Free Lossless Audio Codec (*.flac)
Качество/Quality: Lossless
Тип рипа/RIP Type: image+.cue
Продолжительность/Length: 01:02:13
Источник/Source: Собственный рип
Размер/Size: 456.9 MB

Сканы в комплекте

Треклист

01. I'll Take Her (feat. K-Ci Hailey) [0:03:49.20]
02. Lovin' You [0:04:43.32]
03. Trust Me So Much [0:05:02.58]
04. Vibe [0:05:02.67]
05. Never Knew Love [0:03:42.30]
06. True Love (feat. Chico DeBarge) [0:04:38.33]
07. Half The Time [0:05:27.60]
08. Looks Like (You've Been Crying) [0:05:22.07]
09. Close My Eyes (feat. Monifah) [0:05:01.38]
10. Nightmare (Her Love) [0:05:02.05]
11. Coming Home [0:05:29.17]
12. Country Boy [0:03:49.68]
13. Disrespectful Ghetto [0:05:00.60]
[свернуть]

youtube.com

[свернуть]

EAC лог

Exact Audio Copy V1.3 from 2. September 2016

EAC extraction logfile from 24. September 2017, 16:36

Calvin Richardson / Country Boy

Used drive : ATAPI iHAS124 D Adapter: 0 ID: 2

Read mode : Secure
Utilize accurate stream : Yes
Defeat audio cache : Yes
Make use of C2 pointers : No

Read offset correction : 6
Overread into Lead-In and Lead-Out : No
Fill up missing offset samples with silence : Yes
Delete leading and trailing silent blocks : No
Null samples used in CRC calculations : Yes
Used interface : Installed external ASPI interface

Used output format : User Defined Encoder
Selected bitrate : 1024 kBit/s
Quality : High
Add ID3 tag : No
Command line compressor : C:\Program Files (x86)\Exact Audio Copy\Flac\flac.exe
Additional command line options : -6 -V -T "ARTIST=%artist%" -T "TITLE=%title%" -T "ALBUM=%albumtitle%" -T "DATE=%year%" -T "TRACKNUMBER=%tracknr%" -T "GENRE=%genre%" -T "COMMENT=%comment%" -T "BAND=%albuminterpret%" -T "ALBUMARTIST=%albuminterpret%" -T "COMPOSER=%composer%" %haslyrics%--tag-from-file=LYRICS="%lyricsfile%"%haslyrics% -T "DISCNUMBER=%cdnumber%" -T "TOTALDISCS=%totalcds%" -T "TOTALTRACKS=%numtracks%" %hascover%--picture="%coverfile%"%hascover% %source% -o %dest%


TOC of the extracted CD

Track | Start | Length | Start sector | End sector
---------------------------------------------------------
1 | 0:00.00 | 3:49.20 | 0 | 17194
2 | 3:49.20 | 4:43.32 | 17195 | 38451
3 | 8:32.52 | 5:02.58 | 38452 | 61159
4 | 13:35.35 | 5:02.67 | 61160 | 83876
5 | 18:38.27 | 3:42.30 | 83877 | 100556
6 | 22:20.57 | 4:38.33 | 100557 | 121439
7 | 26:59.15 | 5:27.60 | 121440 | 146024
8 | 32:27.00 | 5:22.07 | 146025 | 170181
9 | 37:49.07 | 5:01.38 | 170182 | 192794
10 | 42:50.45 | 5:02.05 | 192795 | 215449
11 | 47:52.50 | 5:29.17 | 215450 | 240141
12 | 53:21.67 | 3:49.68 | 240142 | 257384
13 | 57:11.60 | 5:00.60 | 257385 | 279944


Range status and errors

Selected range

Filename C:\mm\Calvin Richardson\1999 - Country Boy [MVU-24055]\Calvin Richardson - Country Boy.wav

Peak level 100.0 %
Extraction speed 8.9 X
Range quality 100.0 %
Test CRC 4577747D
Copy CRC 4577747D
Copy OK

No errors occurred


AccurateRip summary

Track 1 not present in database
Track 2 not present in database
Track 3 not present in database
Track 4 not present in database
Track 5 not present in database
Track 6 not present in database
Track 7 not present in database
Track 8 not present in database
Track 9 not present in database
Track 10 not present in database
Track 11 not present in database
Track 12 not present in database
Track 13 not present in database

None of the tracks are present in the AccurateRip database

End of status report

---- CUETools DB Plugin V2.1.6

[CTDB TOCID: BAtYPPX7X.OGHaHJe_sicRLrzqY-] found
Submit result: BAtYPPX7X.OGHaHJe_sicRLrzqY- has been confirmed
Track | CTDB Status
1 | (1/1) Accurately ripped
2 | (1/1) Accurately ripped
3 | (1/1) Accurately ripped
4 | (1/1) Accurately ripped
5 | (1/1) Accurately ripped
6 | (1/1) Accurately ripped
7 | (1/1) Accurately ripped
8 | (1/1) Accurately ripped
9 | (1/1) Accurately ripped
10 | (1/1) Accurately ripped
11 | (1/1) Accurately ripped
12 | (1/1) Accurately ripped
13 | (1/1) Accurately ripped
[свернуть]

Файл CUE

REM GENRE R&B
REM DATE 1999
REM DISCID 970E940D
REM COMMENT "ExactAudioCopy v1.3"
PERFORMER "Calvin Richardson"
TITLE "Country Boy"
REM COMPOSER ""
FILE "Calvin Richardson - Country Boy.flac" WAVE
TRACK 01 AUDIO
TITLE "I'll Take Her (feat. K-Ci Hailey)"
PERFORMER "Calvin Richardson"
REM COMPOSER ""
INDEX 01 00:00:00
TRACK 02 AUDIO
TITLE "Lovin' You"
PERFORMER "Calvin Richardson"
REM COMPOSER ""
INDEX 01 03:49:20
TRACK 03 AUDIO
TITLE "Trust Me So Much"
PERFORMER "Calvin Richardson"
REM COMPOSER ""
INDEX 01 08:32:52
TRACK 04 AUDIO
TITLE "Vibe"
PERFORMER "Calvin Richardson"
REM COMPOSER ""
INDEX 01 13:35:35
TRACK 05 AUDIO
TITLE "Never Knew Love"
PERFORMER "Calvin Richardson"
REM COMPOSER ""
INDEX 01 18:38:27
TRACK 06 AUDIO
TITLE "True Love (feat. Chico DeBarge)"
PERFORMER "Calvin Richardson"
REM COMPOSER ""
INDEX 01 22:20:57
TRACK 07 AUDIO
TITLE "Half The Time"
PERFORMER "Calvin Richardson"
REM COMPOSER ""
INDEX 01 26:59:15
TRACK 08 AUDIO
TITLE "Looks Like (You've Been Crying)"
PERFORMER "Calvin Richardson"
REM COMPOSER ""
INDEX 01 32:27:00
TRACK 09 AUDIO
TITLE "Close My Eyes (feat. Monifah)"
PERFORMER "Calvin Richardson"
REM COMPOSER ""
INDEX 01 37:49:07
TRACK 10 AUDIO
TITLE "Nightmare (Her Love)"
PERFORMER "Calvin Richardson"
REM COMPOSER ""
INDEX 01 42:50:45
TRACK 11 AUDIO
TITLE "Coming Home"
PERFORMER "Calvin Richardson"
REM COMPOSER ""
INDEX 01 47:52:50
TRACK 12 AUDIO
TITLE "Country Boy"
PERFORMER "Calvin Richardson"
REM COMPOSER ""
INDEX 00 53:21:43
INDEX 01 53:21:67
TRACK 13 AUDIO
TITLE "Disrespectful Ghetto"
PERFORMER "Calvin Richardson"
REM COMPOSER ""
INDEX 01 57:11:60
[свернуть]

Лог проверки качества

AUDIOCHECKER v2.0 beta (build 457) - by Dester -
~~~~~~~~~~~~~~~~~~~~~~~~~~~~~~~~~~
-=== НЕ РЕДАКТИРУЙТЕ ЭТОТ ФАЙЛ! ===-

Путь: ...\1999 - Country Boy [MVU-24055]

1 -=- Calvin Richardson - Country Boy.flac -=- CDDA (100%)

1451028
[свернуть]

Спектр частот

[свернуть]

Скачать Calvin Richardson - Country Boy



password: sergych
[свернуть]

Контрольная сумма (хеш-сумма) архива

MD5: 3e193a17cd695957addb996e9776893a
[свернуть]
My opinion of release: 9/10
__________________
TAIFUN.Wings of Soul

Вверх
3 пользователя(ей) сказали cпасибо:
Показать список поблагодаривших
Похожие темы
Тема Автор Раздел Ответов Последнее сообщение
VA Now Country 4 PUPOKIN Country 0 29.09.2010 09:47
Релиз Black Country Communion - Black Country PUPOKIN Hard Rock 0 17.09.2010 09:59
Альбом Calvin Russell - Dawg Eat Dawg PUPOKIN Blues Rock 0 06.11.2009 10:32
Сборник Now Country 3 PUPOKIN Country 0 10.10.2009 09:35
Мужская мода бренд Calvin Klein Jeans МУЗЫКА Мода, внешность, стиль 0 21.04.2008 19:49


Метки
1999 , calvin richardson , country boy , neo soul , r&b , soul

Опции темы

Ваши права в разделе
Вы не можете создавать новые темы
Вы не можете отвечать в темах
Вы не можете прикреплять вложения
Вы не можете редактировать свои сообщения

Быстрый переход



Текущее время: 20:02. Часовой пояс GMT +3.
Powered by vBulletin® Version 3.8.10
Copyright ©2000 - 2018, vBulletin Solutions, Inc. Перевод: zCarot
© 2008 - 2018 Taifun With Song
Яндекс.Метрика