TAIFUN With Song
Навигация
Jazz и Blues Гибкая ритмика, импровизационное начало, гармонии и мелодии - все это Jazz. Blues - жизнеутверждающая музыка, рожденная из душевной боли

А знаете ли Вы, что...
Какая песня, часто приписываемая Элвису Пресли, никогда им не записывалась?
«Песню «Only You» часто приписывают Элвису Пресли, хотя на самом деле наиболее известными её исполнителями является группа «The Platters». Элвис пел «Only You» на некоторых концертах, но не существует ни одной аудио- или видеозаписи этой композиции в его исполнении.»
 
Опции темы

  #1
Старый 08.05.2013, 20:17
sergych
Координатор
Досье
 
Аватар для sergych
Релиз Oscar Peterson - Soul Espanol


2002(2005) - Oscar Peterson - Soul Espanol




Исполнитель/Artist: Oscar Peterson
Альбом/Album: Soul Espanol
Год/Year: 2002
Ремастеринг/Remaster: 2005
Жанр/Genre: Jazz, Swing, Smooth Jazz, Samba
Страна/Country: Германия
Рекорд-лейбл/Record label: Verve / Limelight
Номер в каталоге/Catalogue #: 7 31451 04392 5
Дата записи/Recording date: 12-14.12.1966
Формат/Format: Free Lossless Audio Codec (*.flac)
Качество/Quality: Lossless
Тип рипа/RIP Type: image+.cue
Продолжительность/Length: 00:55:17
Источник/Source: Собственный рип
Размер/Size: 243.0 MB

Сканы в комплекте

Треклист

01. Mas Que Nada [0:02:27.40]
02. Manha De Carnaval [0:03:45.15]
03. Call Me [0:05:19.60]
04. How Insensitive [0:04:02.68]
05. Carioca [0:04:31.69]
06. Soulville Samba [0:02:25.28]
07. Amanha (Tomorrow) [0:04:21.65]
08. Meditation [0:04:15.35]
09. Samba Sensitive [0:03:20.35]
10. Samba De Orfeo [0:03:50.65]
[свернуть]

youtube.com

[свернуть]

Исполнители/Performers

Oscar Peterson - piano
Sam Jones - bass
Henley Gibson - conga
Marshall Thompson - timbales
Harold Jones - percussion
Louis Hayes - drums
[свернуть]

EAC лог

Exact Audio Copy V1.3 from 2. September 2016

EAC extraction logfile from 30. May 2018, 9:31

Oscar Peterson / Soul Espanol

Used drive : ATAPI iHAS124 D Adapter: 0 ID: 2

Read mode : Secure
Utilize accurate stream : Yes
Defeat audio cache : Yes
Make use of C2 pointers : No

Read offset correction : 6
Overread into Lead-In and Lead-Out : No
Fill up missing offset samples with silence : Yes
Delete leading and trailing silent blocks : No
Null samples used in CRC calculations : Yes
Used interface : Installed external ASPI interface

Used output format : User Defined Encoder
Selected bitrate : 1024 kBit/s
Quality : High
Add ID3 tag : No
Command line compressor : C:\Program Files (x86)\Exact Audio Copy\Flac\flac.exe
Additional command line options : -6 -V -T "ARTIST=%artist%" -T "TITLE=%title%" -T "ALBUM=%albumtitle%" -T "DATE=%year%" -T "TRACKNUMBER=%tracknr%" -T "GENRE=%genre%" -T "COMMENT=%comment%" -T "BAND=%albuminterpret%" -T "ALBUMARTIST=%albuminterpret%" -T "COMPOSER=%composer%" %haslyrics%--tag-from-file=LYRICS="%lyricsfile%"%haslyrics% -T "DISCNUMBER=%cdnumber%" -T "TOTALDISCS=%totalcds%" -T "TOTALTRACKS=%numtracks%" %hascover%--picture="%coverfile%"%hascover% %source% -o %dest%


TOC of the extracted CD

Track | Start | Length | Start sector | End sector
---------------------------------------------------------
1 | 0:00.00 | 2:27.40 | 0 | 11064
2 | 2:27.40 | 3:45.15 | 11065 | 27954
3 | 6:12.55 | 5:19.60 | 27955 | 51939
4 | 11:32.40 | 4:02.68 | 51940 | 70157
5 | 15:35.33 | 4:31.69 | 70158 | 90551
6 | 20:07.27 | 2:25.28 | 90552 | 101454
7 | 22:32.55 | 4:21.65 | 101455 | 121094
8 | 26:54.45 | 4:15.35 | 121095 | 140254
9 | 31:10.05 | 3:20.35 | 140255 | 155289
10 | 34:30.40 | 3:50.65 | 155290 | 172604


Range status and errors

Selected range

Filename C:\mm\Oscar Peterson\2002(2005) - Soul Espanol [7 31451 04392 5]\Oscar Peterson - Soul Espanol.wav

Peak level 99.9 %
Extraction speed 1.6 X
Range quality 99.9 %
Test CRC AA23EE03
Copy CRC AA23EE03
Copy OK

No errors occurred

End of status report

---- CUETools DB Plugin V2.1.6

[CTDB TOCID: kvmsLHyDmINuHOxhFyQSjnumbe4-] found
Submit result: already submitted
Track | CTDB Status
1 | (20/20) Accurately ripped
2 | (20/20) Accurately ripped
3 | (20/20) Accurately ripped
4 | (20/20) Accurately ripped
5 | (20/20) Accurately ripped
6 | (20/20) Accurately ripped
7 | (20/20) Accurately ripped
8 | (20/20) Accurately ripped
9 | (20/20) Accurately ripped
10 | (20/20) Accurately ripped
[свернуть]

Файл CUE

REM GENRE Jazz
REM DATE 2002
REM DISCID 8808FD0A
REM COMMENT "ExactAudioCopy v1.3"
PERFORMER "Oscar Peterson"
TITLE "Soul Espanol"
REM COMPOSER ""
FILE "Oscar Peterson - Soul Espanol.flac" WAVE
TRACK 01 AUDIO
TITLE "Mas Que Nada"
PERFORMER "Oscar Peterson"
REM COMPOSER ""
INDEX 01 00:00:00
TRACK 02 AUDIO
TITLE "Manha De Carnaval"
PERFORMER "Oscar Peterson"
REM COMPOSER ""
INDEX 00 02:24:55
INDEX 01 02:27:40
TRACK 03 AUDIO
TITLE "Call Me"
PERFORMER "Oscar Peterson"
REM COMPOSER ""
INDEX 00 06:09:60
INDEX 01 06:12:55
TRACK 04 AUDIO
TITLE "How Insensitive"
PERFORMER "Oscar Peterson"
REM COMPOSER ""
INDEX 00 11:26:52
INDEX 01 11:32:40
TRACK 05 AUDIO
TITLE "Carioca"
PERFORMER "Oscar Peterson"
REM COMPOSER ""
INDEX 00 15:32:55
INDEX 01 15:35:33
TRACK 06 AUDIO
TITLE "Soulville Samba"
PERFORMER "Oscar Peterson"
REM COMPOSER ""
INDEX 00 20:05:00
INDEX 01 20:07:27
TRACK 07 AUDIO
TITLE "Amanha (Tomorrow)"
PERFORMER "Oscar Peterson"
REM COMPOSER ""
INDEX 00 22:29:35
INDEX 01 22:32:55
TRACK 08 AUDIO
TITLE "Meditation"
PERFORMER "Oscar Peterson"
REM COMPOSER ""
INDEX 00 26:50:20
INDEX 01 26:54:45
TRACK 09 AUDIO
TITLE "Samba Sensitive"
PERFORMER "Oscar Peterson"
REM COMPOSER ""
INDEX 00 31:06:72
INDEX 01 31:10:05
TRACK 10 AUDIO
TITLE "Samba De Orfeo"
PERFORMER "Oscar Peterson"
REM COMPOSER ""
INDEX 00 34:27:57
INDEX 01 34:30:40
[свернуть]

Лог проверки качества

AUDIOCHECKER v2.0 beta (build 457) - by Dester -
~~~~~~~~~~~~~~~~~~~~~~~~~~~~~~~~~~
-=== НЕ РЕДАКТИРУЙТЕ ЭТОТ ФАЙЛ! ===-

Путь: ...\2002(2005) - Soul Espanol [7 31451 04392 5]

1 -=- Oscar Peterson - Soul Espanol.flac -=- CDDA (100%)

161010548
[свернуть]

Спектр частот

[свернуть]

Скачать Oscar Peterson - Soul Espanol



password: sergych
[свернуть]

Контрольная сумма (хеш-сумма) архива

MD5: 4528cacd1b82303020f73a3d0c38542b
[свернуть]
My opinion of release: 10/10
__________________
TAIFUN.Wings of Soul


Последний раз редактировалось sergych, 30.05.2018 в 19:51. Причина: замена потрекового рипа образом, переоформление темы
Вверх
3 пользователя(ей) сказали cпасибо:
Показать список поблагодаривших
  #2
Старый 30.05.2018, 19:52
sergych
Координатор
Досье
 
Аватар для sergych
По умолчанию Re: Oscar Peterson - Soul Espanol

Заменил потрековый рип образом, переоформление темы
__________________
TAIFUN.Wings of Soul

Вверх
3 пользователя(ей) сказали cпасибо:
Показать список поблагодаривших
Похожие темы
Тема Автор Раздел Ответов Последнее сообщение
Альбом Ben Webster & Oscar Peterson - Ben Webster Meets Oscar Peterson sergych Jazz и Blues 1 01.06.2018 17:07
Альбом Oscar Peterson - Oscar Peterson Plays Duke Ellington sergych Jazz и Blues 1 05.03.2015 20:44
Альбом Oscar Peterson - Oscar Peterson plays Porgy & Bess sergych Jazz и Blues 0 27.12.2008 06:28
Сборник Oscar Peterson - An Oscar Peterson Christmas sergych Jazz и Blues 0 27.12.2008 05:27
Альбом Count Basie & Oscar Peterson - The Timekeepers (Count Basie Meets Oscar Peterson) sergych Jazz и Blues 0 26.12.2008 04:10


Метки
2002 , jazz , oscar peterson , smooth jazz , soul espanol , swing

Опции темы

Ваши права в разделе
Вы не можете создавать новые темы
Вы не можете отвечать в темах
Вы не можете прикреплять вложения
Вы не можете редактировать свои сообщения

Быстрый переход



Текущее время: 17:23. Часовой пояс GMT +3.
Powered by vBulletin® Version 3.8.10
Copyright ©2000 - 2018, vBulletin Solutions, Inc. Перевод: zCarot
© 2008 - 2018 Taifun With Song
Яндекс.Метрика