TAIFUN With Song
Навигация
Вернуться   TAIFUN With Song > Music (обменник) > Rock > Soft Rock
Расширенный поиск
Soft Rock Это музыкальный стиль, который использует технику рок-н-ролла чтобы достичь более мягкого, более приятного для слуха звука, чтобы такую музыку было приятно слушать, например, на работе или за рулем. Soft rock всегда поется с высокими голосами, если певец мужчина, то он будет петь фальцетом, слова soft rock’а всегда сфокусированы на приятные темы, такие, как любовь, ежедневная жизнь и дружба.

А знаете ли Вы, что...
Чья кровь применялась при печати комиксов?
«Участники группы KISS для раскрутки первого комикса о себе сдали кровь и смешали её с красными чернилами в издающей комикс типографии.»
 
Опции темы

  #1
Старый 23.09.2017, 11:53
sergych
Координатор
Досье
 
Аватар для sergych
Релиз Stevie Nicks - Timespace: The Best of Stevie Nicks


1991 - Stevie Nicks - Timespace: The Best of Stevie Nicks




Исполнитель/Artist: Stevie Nicks
Альбом/Album: Timespace: The Best of Stevie Nicks
Год/Year: 1991
Жанр/Genre: Soft rock, rock
Страна/Country: Великобритания
Рекорд-лейбл/Record label: EMI Records
Номер в каталоге/Catalogue #: CDP 7976232
Формат/Format: Free Lossless Audio Codec (*.flac)
Качество/Quality: Lossless
Тип рипа/RIP Type: image+.cue
Продолжительность/Length: 01:06:19
Источник/Source: Собственный рип
Размер/Size: 481.8 MB

Сканы в комплекте

Треклист

01. Sometimes It's A Bitch [0:04:39.27]
02. Stop Draggin' My Heart Around [0:04:04.70]
03. Whole Lotta Trouble [0:04:31.55]
04. Talk To Me [0:04:12.05]
05. Stand Back [0:04:57.15]
06. Beauty And The Beast [0:06:05.05]
07. If Anyone Falls [0:04:08.53]
08. Rooms On Fire [0:04:40.02]
09. Love's A Hard Game To Play [0:05:03.43]
10. Edge Of Seventeen [0:05:28.17]
11. Leather And Lace [0:03:49.13]
12. I Can't Wait [0:04:37.72]
13. Has Anyone Ever Written Anything For You [0:04:39.43]
14. Desert Angel [0:05:21.47]
[свернуть]

youtube.com

[свернуть]

EAC лог

Exact Audio Copy V1.3 from 2. September 2016

EAC extraction logfile from 21. September 2017, 20:49

Stevie Nicks / TimeSpace. The Best Of

Used drive : ATAPI iHAS124 D Adapter: 0 ID: 2

Read mode : Secure
Utilize accurate stream : Yes
Defeat audio cache : Yes
Make use of C2 pointers : No

Read offset correction : 6
Overread into Lead-In and Lead-Out : No
Fill up missing offset samples with silence : Yes
Delete leading and trailing silent blocks : No
Null samples used in CRC calculations : Yes
Used interface : Installed external ASPI interface

Used output format : User Defined Encoder
Selected bitrate : 1024 kBit/s
Quality : High
Add ID3 tag : No
Command line compressor : C:\Program Files (x86)\Exact Audio Copy\Flac\flac.exe
Additional command line options : -6 -V -T "ARTIST=%artist%" -T "TITLE=%title%" -T "ALBUM=%albumtitle%" -T "DATE=%year%" -T "TRACKNUMBER=%tracknr%" -T "GENRE=%genre%" -T "COMMENT=%comment%" -T "BAND=%albuminterpret%" -T "ALBUMARTIST=%albuminterpret%" -T "COMPOSER=%composer%" %haslyrics%--tag-from-file=LYRICS="%lyricsfile%"%haslyrics% -T "DISCNUMBER=%cdnumber%" -T "TOTALDISCS=%totalcds%" -T "TOTALTRACKS=%numtracks%" %hascover%--picture="%coverfile%"%hascover% %source% -o %dest%


TOC of the extracted CD

Track | Start | Length | Start sector | End sector
---------------------------------------------------------
1 | 0:00.33 | 4:39.27 | 33 | 20984
2 | 4:39.60 | 4:04.70 | 20985 | 39354
3 | 8:44.55 | 4:31.55 | 39355 | 59734
4 | 13:16.35 | 4:12.05 | 59735 | 78639
5 | 17:28.40 | 4:57.15 | 78640 | 100929
6 | 22:25.55 | 6:05.05 | 100930 | 128309
7 | 28:30.60 | 4:08.53 | 128310 | 146962
8 | 32:39.38 | 4:40.02 | 146963 | 167964
9 | 37:19.40 | 5:03.43 | 167965 | 190732
10 | 42:23.08 | 5:28.17 | 190733 | 215349
11 | 47:51.25 | 3:49.13 | 215350 | 232537
12 | 51:40.38 | 4:37.72 | 232538 | 253384
13 | 56:18.35 | 4:39.43 | 253385 | 274352
14 | 60:58.03 | 5:21.47 | 274353 | 298474


Range status and errors

Selected range

Filename C:\mm\Fleetwood Mac\Solo\Stevie Nicks\1991 - Timespace. The Best of [CDP 7976232]\Stevie Nicks - TimeSpace. The Best Of.wav

Peak level 100.0 %
Extraction speed 3.6 X
Range quality 99.9 %
Test CRC F1C54515
Copy CRC F1C54515
Copy OK

No errors occurred


AccurateRip summary

Track 1 accurately ripped (confidence 55) [299A3A33] (AR v2)
Track 2 accurately ripped (confidence 56) [818B0BB4] (AR v2)
Track 3 accurately ripped (confidence 56) [5D8E1068] (AR v2)
Track 4 accurately ripped (confidence 56) [A4A9B685] (AR v2)
Track 5 accurately ripped (confidence 55) [C160EB2F] (AR v2)
Track 6 accurately ripped (confidence 55) [F60F8015] (AR v2)
Track 7 accurately ripped (confidence 54) [27B1F8B6] (AR v2)
Track 8 accurately ripped (confidence 55) [BA3ED924] (AR v2)
Track 9 accurately ripped (confidence 56) [59A595D5] (AR v2)
Track 10 accurately ripped (confidence 54) [9516983B] (AR v2)
Track 11 accurately ripped (confidence 55) [373AD521] (AR v2)
Track 12 accurately ripped (confidence 56) [0FD6EF11] (AR v2)
Track 13 accurately ripped (confidence 55) [B8BD90C3] (AR v2)
Track 14 accurately ripped (confidence 53) [ABC72B65] (AR v2)

All tracks accurately ripped

End of status report

---- CUETools DB Plugin V2.1.6

[CTDB TOCID: C1MKImykWx70gUDW2631cHIWa1s-] found
Submit result: C1MKImykWx70gUDW2631cHIWa1s- has been confirmed
Track | CTDB Status
1 | (159/165) Accurately ripped
2 | (162/165) Accurately ripped
3 | (161/165) Accurately ripped
4 | (162/165) Accurately ripped
5 | (160/165) Accurately ripped
6 | (159/165) Accurately ripped
7 | (160/165) Accurately ripped
8 | (161/165) Accurately ripped
9 | (162/165) Accurately ripped
10 | (160/165) Accurately ripped
11 | (159/165) Accurately ripped
12 | (146/165) Accurately ripped
13 | (158/165) Accurately ripped
14 | (155/165) Accurately ripped
[свернуть]

Файл CUE

REM GENRE Rock
REM DATE 1991
REM DISCID B30F8B0E
REM COMMENT "ExactAudioCopy v1.3"
PERFORMER "Stevie Nicks"
TITLE "TimeSpace. The Best Of"
REM COMPOSER ""
FILE "Stevie Nicks - TimeSpace. The Best Of.flac" WAVE
TRACK 01 AUDIO
TITLE "Sometimes It's A Bitch"
PERFORMER "Stevie Nicks"
REM COMPOSER ""
INDEX 00 00:00:00
INDEX 01 00:00:33
TRACK 02 AUDIO
TITLE "Stop Draggin' My Heart Around"
PERFORMER "Stevie Nicks"
REM COMPOSER ""
INDEX 00 04:38:56
INDEX 01 04:39:60
TRACK 03 AUDIO
TITLE "Whole Lotta Trouble"
PERFORMER "Stevie Nicks"
REM COMPOSER ""
INDEX 00 08:44:08
INDEX 01 08:44:55
TRACK 04 AUDIO
TITLE "Talk To Me"
PERFORMER "Stevie Nicks"
REM COMPOSER ""
INDEX 00 13:15:18
INDEX 01 13:16:35
TRACK 05 AUDIO
TITLE "Stand Back"
PERFORMER "Stevie Nicks"
REM COMPOSER ""
INDEX 00 17:26:40
INDEX 01 17:28:40
TRACK 06 AUDIO
TITLE "Beauty And The Beast"
PERFORMER "Stevie Nicks"
REM COMPOSER ""
INDEX 00 22:24:18
INDEX 01 22:25:55
TRACK 07 AUDIO
TITLE "If Anyone Falls"
PERFORMER "Stevie Nicks"
REM COMPOSER ""
INDEX 00 28:29:40
INDEX 01 28:30:60
TRACK 08 AUDIO
TITLE "Rooms On Fire"
PERFORMER "Stevie Nicks"
REM COMPOSER ""
INDEX 00 32:38:10
INDEX 01 32:39:38
TRACK 09 AUDIO
TITLE "Love's A Hard Game To Play"
PERFORMER "Stevie Nicks"
REM COMPOSER ""
INDEX 00 37:18:30
INDEX 01 37:19:40
TRACK 10 AUDIO
TITLE "Edge Of Seventeen"
PERFORMER "Stevie Nicks"
REM COMPOSER ""
INDEX 00 42:22:05
INDEX 01 42:23:08
TRACK 11 AUDIO
TITLE "Leather And Lace"
PERFORMER "Stevie Nicks"
REM COMPOSER ""
INDEX 00 47:49:50
INDEX 01 47:51:25
TRACK 12 AUDIO
TITLE "I Can't Wait"
PERFORMER "Stevie Nicks"
REM COMPOSER ""
INDEX 00 51:40:13
INDEX 01 51:40:38
TRACK 13 AUDIO
TITLE "Has Anyone Ever Written Anything For You"
PERFORMER "Stevie Nicks"
REM COMPOSER ""
INDEX 00 56:16:68
INDEX 01 56:18:35
TRACK 14 AUDIO
TITLE "Desert Angel"
PERFORMER "Stevie Nicks"
REM COMPOSER ""
INDEX 00 60:56:68
INDEX 01 60:58:03
[свернуть]

Лог проверки качества

AUDIOCHECKER v2.0 beta (build 457) - by Dester -
~~~~~~~~~~~~~~~~~~~~~~~~~~~~~~~~~~
-=== НЕ РЕДАКТИРУЙТЕ ЭТОТ ФАЙЛ! ===-

Путь: ...\1991 - Timespace. The Best of [CDP 7976232]

1 -=- Stevie Nicks - TimeSpace. The Best Of.flac -=- CDDA (99%)

180106740
[свернуть]

Спектр частот

[свернуть]

Скачать Stevie Nicks - Timespace: The Best of Stevie Nicks



password: sergych
[свернуть]

Контрольная сумма (хеш-сумма) архива

MD5: 2aeb4c154833ca11e007874a87352747
[свернуть]
My opinion of release: 10/10

Release info RInfo

Поднявшись на 30-ю строку в Billboard 200 (что для Стиви Никс довольно невысоко), сборник продержался там почти полгода и нашёл более полутора миллионов покупателей только в США.
__________________
TAIFUN.Wings of Soul

Вверх
6 пользователя(ей) сказали cпасибо:
Показать список поблагодаривших
Похожие темы
Тема Автор Раздел Ответов Последнее сообщение
Сборник Stevie Nicks - Crystal Visions....The Very Best of Stevie Nicks sergych Soft Rock 1 29.08.2017 13:25
Live Stevie Nicks - The Soundstage Sessions sergych Soft Rock 0 03.04.2017 21:03
Альбом Stevie Nicks - Street Angel sergych Soft Rock 0 30.08.2015 18:30
Альбом Stevie Nicks - Rock A Little sergych Pop Rock 0 18.04.2015 17:26
Альбом Stevie Nicks - In Your Dreams sergych Soft Rock 0 19.03.2015 20:04


Метки
1991 , rock , soft rock , stevie nicks , timespace: the best of stevie nicks

Опции темы

Ваши права в разделе
Вы не можете создавать новые темы
Вы не можете отвечать в темах
Вы не можете прикреплять вложения
Вы не можете редактировать свои сообщения

Быстрый переход



Текущее время: 14:18. Часовой пояс GMT +3.
Powered by vBulletin® Version 3.8.10
Copyright ©2000 - 2018, vBulletin Solutions, Inc. Перевод: zCarot
© 2008 - 2018 Taifun With Song
Яндекс.Метрика