TAIFUN With Song
Навигация
Вернуться   TAIFUN With Song > Music (обменник) > Rock > Soft Rock
Расширенный поиск
Soft Rock Это музыкальный стиль, который использует технику рок-н-ролла чтобы достичь более мягкого, более приятного для слуха звука, чтобы такую музыку было приятно слушать, например, на работе или за рулем. Soft rock всегда поется с высокими голосами, если певец мужчина, то он будет петь фальцетом, слова soft rock’а всегда сфокусированы на приятные темы, такие, как любовь, ежедневная жизнь и дружба.

А знаете ли Вы, что...
Чья кровь применялась при печати комиксов?
«Участники группы KISS для раскрутки первого комикса о себе сдали кровь и смешали её с красными чернилами в издающей комикс типографии.»
 
Опции темы

  #1
Старый 19.11.2016, 21:19
sergych
Координатор
Досье
 
Аватар для sergych
Релиз Chris De Burgh - Footsteps


2008 - Chris De Burgh - Footsteps




Исполнитель/Artist: Chris De Burgh
Альбом/Album: Footsteps
Год/Year: 2008
Жанр/Genre: Soft Rock
Страна/Country: Европа
Рекорд-лейбл/Record label: Universal Music
Номер в каталоге/Catalogue #: 1798495
Формат/Format: Free Lossless Audio Codec (*.flac)
Качество/Quality: Lossless
Тип рипа/RIP Type: image+.cue
Продолжительность/Length: 00:50:06
Источник/Source: Собственный рип
Размер/Size: 406.9 MB

Сканы в комплекте

Треклист

01. First Steps [0:01:09.16]
02. Turn, Turn, Turn [0:03:29.12]
03. The Long And Winding Road [0:03:34.60]
04. Africa [0:04:15.69]
05. Without You [0:03:21.18]
06. Where Have All The Flowers Gone? [0:03:43.69]
07. Sealed With A Kiss [0:02:36.05]
08. Blackbird [0:02:24.68]
09. We Can Work It Out [0:02:12.14]
10. All Along The Watchtower [0:03:18.27]
11. Corrina Corrina [0:02:46.61]
12. Rhythm Of The Rain / Crying In The Rain [0:03:08.60]
13. Polly Von [0:03:12.00]
14. American Pie [0:04:22.68]
15. The Last Thing On My Mind [0:03:27.51]
16. Footsteps [0:03:01.71]
[свернуть]

youtube.com

[свернуть]

Исполнители/Performers

Chris de Burgh: vocals, guitar
Geoff Dugmore: drums and percussion
Jerry Meehan: bass guitar
Neil Taylor, Phil Palmer: guitars
Pete Gordeno: keyboards and backing vocals
Jakko Jakszyk: backing vocals
Geoffrey Richardson: string quartet on "Polly Von"
Hubie Davison: additional guitars on "Blackbird"
[свернуть]

EAC лог

Exact Audio Copy V1.2 from 12. August 2016

EAC extraction logfile from 19. November 2016, 14:26

Chris De Burgh / Footsteps

Used drive : ATAPI iHAS124 D Adapter: 1 ID: 0

Read mode : Secure
Utilize accurate stream : Yes
Defeat audio cache : Yes
Make use of C2 pointers : No

Read offset correction : 6
Overread into Lead-In and Lead-Out : No
Fill up missing offset samples with silence : Yes
Delete leading and trailing silent blocks : No
Null samples used in CRC calculations : Yes
Used interface : Native Win32 interface for Win NT & 2000

Used output format : User Defined Encoder
Selected bitrate : 1024 kBit/s
Quality : High
Add ID3 tag : No
Command line compressor : C:\Program Files (x86)\Exact Audio Copy\FLAC\FLAC.EXE
Additional command line options : -6 -V -T "ARTIST=%artist%" -T "TITLE=%title%" -T "ALBUM=%albumtitle%" -T "DATE=%year%" -T "TRACKNUMBER=%tracknr%" -T "GENRE=%genre%" -T "COMMENT=%comment%" -T "BAND=%albuminterpret%" -T "ALBUMARTIST=%albuminterpret%" -T "COMPOSER=%composer%" %haslyrics%--tag-from-file=LYRICS="%lyricsfile%"%haslyrics% -T "DISCNUMBER=%cdnumber%" -T "TOTALDISCS=%totalcds%" -T "TOTALTRACKS=%numtracks%" %hascover%--picture="%coverfile%"%hascover% %source% -o %dest%


TOC of the extracted CD

Track | Start | Length | Start sector | End sector
---------------------------------------------------------
1 | 0:00.00 | 1:09.16 | 0 | 5190
2 | 1:09.16 | 3:29.12 | 5191 | 20877
3 | 4:38.28 | 3:34.60 | 20878 | 36987
4 | 8:13.13 | 4:15.69 | 36988 | 56181
5 | 12:29.07 | 3:21.18 | 56182 | 71274
6 | 15:50.25 | 3:43.69 | 71275 | 88068
7 | 19:34.19 | 2:36.05 | 88069 | 99773
8 | 22:10.24 | 2:24.68 | 99774 | 110641
9 | 24:35.17 | 2:12.14 | 110642 | 120555
10 | 26:47.31 | 3:18.27 | 120556 | 135432
11 | 30:05.58 | 2:46.61 | 135433 | 147943
12 | 32:52.44 | 3:08.60 | 147944 | 162103
13 | 36:01.29 | 3:12.00 | 162104 | 176503
14 | 39:13.29 | 4:22.68 | 176504 | 196221
15 | 43:36.22 | 3:27.51 | 196222 | 211797
16 | 47:03.73 | 3:01.71 | 211798 | 225443


Range status and errors

Selected range

Filename C:\mm\Chris de Burgh\2008 - Footsteps [1798495]\Chris De Burgh - Footsteps.wav

Peak level 98.9 %
Extraction speed 5.6 X
Range quality 99.9 %
Test CRC 56391E0A
Copy CRC 56391E0A
Copy OK

No errors occurred


AccurateRip summary

Track 1 accurately ripped (confidence 15) [B6A53BF6] (AR v2)
Track 2 accurately ripped (confidence 15) [28FBE739] (AR v2)
Track 3 accurately ripped (confidence 15) [4EE60E2B] (AR v2)
Track 4 accurately ripped (confidence 15) [1509A987] (AR v2)
Track 5 accurately ripped (confidence 15) [FD36990C] (AR v2)
Track 6 accurately ripped (confidence 15) [31C343D3] (AR v2)
Track 7 accurately ripped (confidence 15) [35F80EFE] (AR v2)
Track 8 accurately ripped (confidence 15) [C8EE7B51] (AR v2)
Track 9 accurately ripped (confidence 15) [AF6D0080] (AR v2)
Track 10 accurately ripped (confidence 15) [92AD565C] (AR v2)
Track 11 accurately ripped (confidence 15) [2B500AA3] (AR v2)
Track 12 accurately ripped (confidence 15) [F72515A3] (AR v2)
Track 13 accurately ripped (confidence 15) [7A4532AE] (AR v2)
Track 14 accurately ripped (confidence 15) [DBF4F684] (AR v2)
Track 15 accurately ripped (confidence 15) [3FE485FD] (AR v2)
Track 16 accurately ripped (confidence 15) [3C4A9A33] (AR v2)

All tracks accurately ripped

End of status report

---- CUETools DB Plugin V2.1.6

[CTDB TOCID: Ovy33XznYe7en33xnFHnw2hpNbc-] found
Submit result: Ovy33XznYe7en33xnFHnw2hpNbc- has been confirmed
Track | CTDB Status
1 | (13/13) Accurately ripped
2 | (13/13) Accurately ripped
3 | (13/13) Accurately ripped
4 | (13/13) Accurately ripped
5 | (13/13) Accurately ripped
6 | (13/13) Accurately ripped
7 | (13/13) Accurately ripped
8 | (13/13) Accurately ripped
9 | (13/13) Accurately ripped
10 | (13/13) Accurately ripped
11 | (13/13) Accurately ripped
12 | (13/13) Accurately ripped
13 | (13/13) Accurately ripped
14 | (13/13) Accurately ripped
15 | (13/13) Accurately ripped
16 | (13/13) Accurately ripped
[свернуть]

Файл CUE

REM GENRE Rock
REM DATE 2008
REM DISCID E00BBD10
REM COMMENT "ExactAudioCopy v1.2"
PERFORMER "Chris De Burgh"
TITLE "Footsteps"
REM COMPOSER ""
FILE "Chris De Burgh - Footsteps.flac" WAVE
TRACK 01 AUDIO
TITLE "First Steps"
PERFORMER "Chris De Burgh"
REM COMPOSER ""
INDEX 01 00:00:00
TRACK 02 AUDIO
TITLE "Turn, Turn, Turn"
PERFORMER "Chris De Burgh"
REM COMPOSER ""
INDEX 01 01:09:16
TRACK 03 AUDIO
TITLE "The Long And Winding Road"
PERFORMER "Chris De Burgh"
REM COMPOSER ""
INDEX 00 04:37:09
INDEX 01 04:38:28
TRACK 04 AUDIO
TITLE "Africa"
PERFORMER "Chris De Burgh"
REM COMPOSER ""
INDEX 00 08:12:47
INDEX 01 08:13:13
TRACK 05 AUDIO
TITLE "Without You"
PERFORMER "Chris De Burgh"
REM COMPOSER ""
INDEX 00 12:27:28
INDEX 01 12:29:07
TRACK 06 AUDIO
TITLE "Where Have All The Flowers Gone?"
PERFORMER "Chris De Burgh"
REM COMPOSER ""
INDEX 00 15:48:31
INDEX 01 15:50:25
INDEX 02 19:33:62
TRACK 07 AUDIO
TITLE "Sealed With A Kiss"
PERFORMER "Chris De Burgh"
REM COMPOSER ""
INDEX 01 19:34:19
TRACK 08 AUDIO
TITLE "Blackbird"
PERFORMER "Chris De Burgh"
REM COMPOSER ""
INDEX 00 22:09:28
INDEX 01 22:10:24
TRACK 09 AUDIO
TITLE "We Can Work It Out"
PERFORMER "Chris De Burgh"
REM COMPOSER ""
INDEX 00 24:34:28
INDEX 01 24:35:17
TRACK 10 AUDIO
TITLE "All Along The Watchtower"
PERFORMER "Chris De Burgh"
REM COMPOSER ""
INDEX 01 26:47:31
TRACK 11 AUDIO
TITLE "Corrina Corrina"
PERFORMER "Chris De Burgh"
REM COMPOSER ""
INDEX 00 30:05:04
INDEX 01 30:05:58
TRACK 12 AUDIO
TITLE "Rhythm Of The Rain / Crying In The Rain"
PERFORMER "Chris De Burgh"
REM COMPOSER ""
INDEX 00 32:51:53
INDEX 01 32:52:44
TRACK 13 AUDIO
TITLE "Polly Von"
PERFORMER "Chris De Burgh"
REM COMPOSER ""
INDEX 00 36:01:01
INDEX 01 36:01:29
TRACK 14 AUDIO
TITLE "American Pie"
PERFORMER "Chris De Burgh"
REM COMPOSER ""
INDEX 00 39:13:05
INDEX 01 39:13:29
TRACK 15 AUDIO
TITLE "The Last Thing On My Mind"
PERFORMER "Chris De Burgh"
REM COMPOSER ""
INDEX 00 43:34:57
INDEX 01 43:36:22
TRACK 16 AUDIO
TITLE "Footsteps"
PERFORMER "Chris De Burgh"
REM COMPOSER ""
INDEX 01 47:03:73
[свернуть]

Лог проверки качества

AUDIOCHECKER v2.0 beta (build 457) - by Dester -
~~~~~~~~~~~~~~~~~~~~~~~~~~~~~~~~~~
-=== НЕ РЕДАКТИРУЙТЕ ЭТОТ ФАЙЛ! ===-

Путь: ...\2008 - Footsteps [1798495]

1 -=- Chris De Burgh - Footsteps.flac -=- CDDA (99%)

117875332
[свернуть]

Спектр частот

[свернуть]

Скачать Chris De Burgh - Footsteps



password: sergych
[свернуть]

Контрольная сумма (хеш-сумма) архива

MD5: 6fd177e90d3e871f78bc9ef1cb97aee5
[свернуть]
My opinion of release: 10/10
__________________
TAIFUN.Wings of Soul

Вверх
2 пользователя(ей) сказали cпасибо:
johnsilver (24.11.2016), swint68 (20.11.2016)
  #2
Старый 24.11.2016, 17:21
johnsilver
Меломан
Досье
 
Аватар для johnsilver
По умолчанию Re: Chris De Burgh - Footsteps

Отличный альбом, спасибо! С блюз-роком, конечно, вы тут перегнули... Очепятка наверное, закралась...

Вверх
Пользователь сказал cпасибо:
sergych (24.11.2016)
  #3
Старый 24.11.2016, 19:52
sergych
Координатор
Досье
 
Аватар для sergych
По умолчанию Re: Chris De Burgh - Footsteps

Цитата: Сообщение от johnsilver Посмотреть сообщение
С блюз-роком, конечно, вы тут перегнули

Ага, подстановку вариантов не подредактировал при оформлении
__________________
TAIFUN.Wings of Soul

Вверх
Похожие темы
Тема Автор Раздел Ответов Последнее сообщение
Альбом Chris de Burgh - Crusader sergych Soft Rock 1 28.03.2017 20:52
Альбом Chris de Burgh - The Getaway sergych Soft Rock 1 21.08.2013 17:05
Альбом Chris de Burgh - Now And Then sergych Soft Rock 0 07.06.2008 23:32
Альбом Chris de Burgh - Man On The Line sergych Soft Rock 0 07.06.2008 23:32
Альбом Chris de Burgh - This Way Up sergych Soft Rock 0 07.06.2008 23:32


Метки
2008 , blues rock , chris de burgh , footsteps , soft rock

Опции темы

Ваши права в разделе
Вы не можете создавать новые темы
Вы не можете отвечать в темах
Вы не можете прикреплять вложения
Вы не можете редактировать свои сообщения

Быстрый переход



Текущее время: 11:36. Часовой пояс GMT +3.
Powered by vBulletin® Version 3.8.10
Copyright ©2000 - 2018, vBulletin Solutions, Inc. Перевод: zCarot
© 2008 - 2018 Taifun With Song
Яндекс.Метрика