TAIFUN With Song
Навигация
Вернуться   TAIFUN With Song > Music (обменник) > Rock > Soft Rock
Расширенный поиск
Soft Rock Это музыкальный стиль, который использует технику рок-н-ролла чтобы достичь более мягкого, более приятного для слуха звука, чтобы такую музыку было приятно слушать, например, на работе или за рулем. Soft rock всегда поется с высокими голосами, если певец мужчина, то он будет петь фальцетом, слова soft rock’а всегда сфокусированы на приятные темы, такие, как любовь, ежедневная жизнь и дружба.

А знаете ли Вы, что...
Какая опера на произведение немецкого классика дала музыку самой известной пионерской песне?
«Музыка к пионерской песне «Взвейтесь кострами, синие ночи» написана на основе «Марша солдат» из оперы Шарля Гуно «Фауст».»
 
Опции темы

  #1
Старый 16.11.2016, 22:57
sergych
Координатор
Досье
 
Аватар для sergych
Релиз Chris De Burgh - Missing You: The Collection


2004 - Chris De Burgh - Missing You: The Collection




Исполнитель/Artist: Chris De Burgh
Альбом/Album: Missing You: The Collection
Год/Year: 2004
Жанр/Genre: Soft Rock, Blues Rock
Страна/Country: Германия
Рекорд-лейбл/Record label: Spectrum Music
Номер в каталоге/Catalogue #: 982 065-1
Формат/Format: Free Lossless Audio Codec (*.flac)
Качество/Quality: Lossless
Тип рипа/RIP Type: image+.cue
Продолжительность/Length: 01:14:28
Источник/Source: Собственный рип
Размер/Size: 535.4 MB

Сканы в комплекте

Треклист

01. High On Emotion [0:04:25.31]
02. Satin Green Shutters [0:05:05.74]
03. The Connemara Coast (feat. The Chieftains) [0:03:45.60]
04. Quiet Moments [0:01:41.32]
05. Spanish Train [0:04:59.65]
06. I Had The Love In My Eyes [0:03:30.37]
07. Lonely Sky [0:03:51.40]
08. Missing You [0:04:09.09]
09. A Celebration [0:03:51.05]
10. I'm Going Home [0:03:32.35]
11. Say Goodbye To It All [0:05:05.25]
12. Where Peaceful Waters Flow [0:03:55.61]
13. Shine On [0:05:01.20]
14. In A Country Churchyard [0:03:55.44]
15. Borderline (live) [0:04:56.29]
16. Patricia The Stripper [0:03:31.52]
17. The Ecstasy Of Flight (I Love The Night) [0:04:01.34]
18. A Spaceman Came Travelling [0:05:07.42]
[свернуть]

youtube.com

[свернуть]

EAC лог

Exact Audio Copy V1.2 from 12. August 2016

EAC extraction logfile from 16. November 2016, 21:51

Chris De Burgh / Missing You: The Collection

Used drive : ATAPI iHAS124 D Adapter: 1 ID: 0

Read mode : Secure
Utilize accurate stream : Yes
Defeat audio cache : Yes
Make use of C2 pointers : No

Read offset correction : 6
Overread into Lead-In and Lead-Out : No
Fill up missing offset samples with silence : Yes
Delete leading and trailing silent blocks : No
Null samples used in CRC calculations : Yes
Used interface : Native Win32 interface for Win NT & 2000

Used output format : User Defined Encoder
Selected bitrate : 1024 kBit/s
Quality : High
Add ID3 tag : No
Command line compressor : C:\Program Files (x86)\Exact Audio Copy\FLAC\FLAC.EXE
Additional command line options : -6 -V -T "ARTIST=%artist%" -T "TITLE=%title%" -T "ALBUM=%albumtitle%" -T "DATE=%year%" -T "TRACKNUMBER=%tracknr%" -T "GENRE=%genre%" -T "COMMENT=%comment%" -T "BAND=%albuminterpret%" -T "ALBUMARTIST=%albuminterpret%" -T "COMPOSER=%composer%" %haslyrics%--tag-from-file=LYRICS="%lyricsfile%"%haslyrics% -T "DISCNUMBER=%cdnumber%" -T "TOTALDISCS=%totalcds%" -T "TOTALTRACKS=%numtracks%" %hascover%--picture="%coverfile%"%hascover% %source% -o %dest%


TOC of the extracted CD

Track | Start | Length | Start sector | End sector
---------------------------------------------------------
1 | 0:00.00 | 4:25.31 | 0 | 19905
2 | 4:25.31 | 5:05.74 | 19906 | 42854
3 | 9:31.30 | 3:45.60 | 42855 | 59789
4 | 13:17.15 | 1:41.32 | 59790 | 67396
5 | 14:58.47 | 4:59.65 | 67397 | 89886
6 | 19:58.37 | 3:30.37 | 89887 | 105673
7 | 23:28.74 | 3:51.40 | 105674 | 123038
8 | 27:20.39 | 4:09.09 | 123039 | 141722
9 | 31:29.48 | 3:51.05 | 141723 | 159052
10 | 35:20.53 | 3:32.35 | 159053 | 174987
11 | 38:53.13 | 5:05.25 | 174988 | 197887
12 | 43:58.38 | 3:55.61 | 197888 | 215573
13 | 47:54.24 | 5:01.20 | 215574 | 238168
14 | 52:55.44 | 3:55.44 | 238169 | 255837
15 | 56:51.13 | 4:56.29 | 255838 | 278066
16 | 61:47.42 | 3:31.52 | 278067 | 293943
17 | 65:19.19 | 4:01.34 | 293944 | 312052
18 | 69:20.53 | 5:07.42 | 312053 | 335119


Range status and errors

Selected range

Filename C:\mm\Chris de Burgh\2004 - Missing You. The Collection [982 065-1]\Chris De Burgh - Missing You. The Collection.wav

Peak level 91.8 %
Extraction speed 10.1 X
Range quality 100.0 %
Test CRC A24E62D3
Copy CRC A24E62D3
Copy OK

No errors occurred


AccurateRip summary

Track 1 accurately ripped (confidence 6) [41FCA815] (AR v2)
Track 2 accurately ripped (confidence 7) [2BCD75A7] (AR v2)
Track 3 accurately ripped (confidence 7) [211470AB] (AR v2)
Track 4 accurately ripped (confidence 7) [05FB3700] (AR v2)
Track 5 accurately ripped (confidence 7) [B3D5D3A3] (AR v2)
Track 6 accurately ripped (confidence 7) [4A57C4A6] (AR v2)
Track 7 accurately ripped (confidence 7) [A358260E] (AR v2)
Track 8 accurately ripped (confidence 8) [D85B649B] (AR v2)
Track 9 accurately ripped (confidence 8) [0BB1FFB9] (AR v2)
Track 10 accurately ripped (confidence 8) [5FF6AA5D] (AR v2)
Track 11 accurately ripped (confidence 8) [53DE9557] (AR v2)
Track 12 accurately ripped (confidence 8) [2907A69E] (AR v2)
Track 13 accurately ripped (confidence 8) [7FFC04F1] (AR v2)
Track 14 accurately ripped (confidence 8) [E8A15179] (AR v2)
Track 15 accurately ripped (confidence 8) [2CE8B4D9] (AR v2)
Track 16 accurately ripped (confidence 8) [97126A35] (AR v2)
Track 17 accurately ripped (confidence 8) [1AAA4716] (AR v2)
Track 18 accurately ripped (confidence 9) [C010BC48] (AR v2)

All tracks accurately ripped

End of status report

---- CUETools DB Plugin V2.1.6

[CTDB TOCID: oG5PyoY.0bLK4C.bkhxsuOiimoE-] found
Submit result: oG5PyoY.0bLK4C.bkhxsuOiimoE- has been confirmed
Track | CTDB Status
1 | (25/25) Accurately ripped
2 | (25/25) Accurately ripped
3 | (25/25) Accurately ripped
4 | (25/25) Accurately ripped
5 | (24/25) Accurately ripped
6 | (25/25) Accurately ripped
7 | (25/25) Accurately ripped
8 | (25/25) Accurately ripped
9 | (25/25) Accurately ripped
10 | (25/25) Accurately ripped
11 | (25/25) Accurately ripped
12 | (25/25) Accurately ripped
13 | (25/25) Accurately ripped
14 | (25/25) Accurately ripped
15 | (25/25) Accurately ripped
16 | (25/25) Accurately ripped
17 | (25/25) Accurately ripped
18 | (25/25) Accurately ripped
[свернуть]

Файл CUE

REM GENRE "Easy Listening"
REM DATE 2004
REM DISCID EE117412
REM COMMENT "ExactAudioCopy v1.2"
PERFORMER "Chris De Burgh"
TITLE "Missing You: The Collection"
REM COMPOSER ""
FILE "Chris De Burgh - Missing You. The Collection.flac" WAVE
TRACK 01 AUDIO
TITLE "High On Emotion"
PERFORMER "Chris De Burgh"
REM COMPOSER ""
INDEX 01 00:00:00
TRACK 02 AUDIO
TITLE "Satin Green Shutters"
PERFORMER "Chris De Burgh"
REM COMPOSER ""
INDEX 00 04:23:48
INDEX 01 04:25:31
TRACK 03 AUDIO
TITLE "The Connemara Coast (feat. The Chieftains)"
PERFORMER "Chris De Burgh"
REM COMPOSER ""
INDEX 00 09:29:47
INDEX 01 09:31:30
TRACK 04 AUDIO
TITLE "Quiet Moments"
PERFORMER "Chris De Burgh"
REM COMPOSER ""
INDEX 00 13:15:33
INDEX 01 13:17:15
TRACK 05 AUDIO
TITLE "Spanish Train"
PERFORMER "Chris De Burgh"
REM COMPOSER ""
INDEX 00 14:56:66
INDEX 01 14:58:47
TRACK 06 AUDIO
TITLE "I Had The Love In My Eyes"
PERFORMER "Chris De Burgh"
REM COMPOSER ""
INDEX 00 19:56:54
INDEX 01 19:58:37
TRACK 07 AUDIO
TITLE "Lonely Sky"
PERFORMER "Chris De Burgh"
REM COMPOSER ""
INDEX 00 23:27:16
INDEX 01 23:28:74
INDEX 02 27:18:56
TRACK 08 AUDIO
TITLE "Missing You"
PERFORMER "Chris De Burgh"
REM COMPOSER ""
INDEX 01 27:20:39
TRACK 09 AUDIO
TITLE "A Celebration"
PERFORMER "Chris De Burgh"
REM COMPOSER ""
INDEX 00 31:27:65
INDEX 01 31:29:48
TRACK 10 AUDIO
TITLE "I'm Going Home"
PERFORMER "Chris De Burgh"
REM COMPOSER ""
INDEX 00 35:18:71
INDEX 01 35:20:53
TRACK 11 AUDIO
TITLE "Say Goodbye To It All"
PERFORMER "Chris De Burgh"
REM COMPOSER ""
INDEX 00 38:51:31
INDEX 01 38:53:13
TRACK 12 AUDIO
TITLE "Where Peaceful Waters Flow"
PERFORMER "Chris De Burgh"
REM COMPOSER ""
INDEX 00 43:56:56
INDEX 01 43:58:38
TRACK 13 AUDIO
TITLE "Shine On"
PERFORMER "Chris De Burgh"
REM COMPOSER ""
INDEX 00 47:52:42
INDEX 01 47:54:24
TRACK 14 AUDIO
TITLE "In A Country Churchyard"
PERFORMER "Chris De Burgh"
REM COMPOSER ""
INDEX 00 52:53:62
INDEX 01 52:55:44
TRACK 15 AUDIO
TITLE "Borderline (live)"
PERFORMER "Chris De Burgh"
REM COMPOSER ""
INDEX 00 56:49:30
INDEX 01 56:51:13
TRACK 16 AUDIO
TITLE "Patricia The Stripper"
PERFORMER "Chris De Burgh"
REM COMPOSER ""
INDEX 00 61:45:60
INDEX 01 61:47:42
TRACK 17 AUDIO
TITLE "The Ecstasy Of Flight (I Love The Night)"
PERFORMER "Chris De Burgh"
REM COMPOSER ""
INDEX 00 65:17:37
INDEX 01 65:19:19
TRACK 18 AUDIO
TITLE "A Spaceman Came Travelling"
PERFORMER "Chris De Burgh"
REM COMPOSER ""
INDEX 00 69:18:71
INDEX 01 69:20:53
[свернуть]

Лог проверки качества

AUDIOCHECKER v2.0 beta (build 457) - by Dester -
~~~~~~~~~~~~~~~~~~~~~~~~~~~~~~~~~~
-=== НЕ РЕДАКТИРУЙТЕ ЭТОТ ФАЙЛ! ===-

Путь: ...\2004 - Missing You. The Collection [982 065-1]

1 -=- Chris De Burgh - Missing You. The Collection.flac -=- CDDA (100%)

120041828
[свернуть]

Спектр частот

[свернуть]

Скачать Chris De Burgh - Missing You: The Collection



password: sergych
[свернуть]

Контрольная сумма (хеш-сумма) архива

MD5: bead8d9bbb279e45a6c7ece301408451
[свернуть]
My opinion of release: 10/10
__________________
TAIFUN.Wings of Soul

Вверх
Пользователь сказал cпасибо:
swint68 (17.11.2016)
Похожие темы
Тема Автор Раздел Ответов Последнее сообщение
Альбом Chris de Burgh - Into The Light aheron Soft Rock 1 26.05.2017 20:45
Сборник Chris de Burgh - Best Moves sergych Soft Rock 0 12.02.2011 09:36
Сборник Chris de Burgh - Golden Collection sergych Soft Rock 0 26.12.2010 16:59
Альбом Chris de Burgh - Now And Then sergych Soft Rock 0 07.06.2008 23:32
Альбом Chris de Burgh - This Way Up sergych Soft Rock 0 07.06.2008 23:32


Метки
2004 , blues rock , chris de burgh , missing you: the collection , soft rock

Опции темы

Ваши права в разделе
Вы не можете создавать новые темы
Вы не можете отвечать в темах
Вы не можете прикреплять вложения
Вы не можете редактировать свои сообщения

Быстрый переход



Текущее время: 12:38. Часовой пояс GMT +3.
Powered by vBulletin® Version 3.8.10
Copyright ©2000 - 2018, vBulletin Solutions, Inc. Перевод: zCarot
© 2008 - 2018 Taifun With Song
Яндекс.Метрика