TAIFUN With Song
Навигация
Вернуться   TAIFUN With Song > Music (обменник) > Другие направления музыки > Jazz и Blues
Расширенный поиск
Jazz и Blues Гибкая ритмика, импровизационное начало, гармонии и мелодии - все это Jazz. Blues - жизнеутверждающая музыка, рожденная из душевной боли

А знаете ли Вы, что...
Почему Майкл Джексон получал половину доходов от продаж песен Beatles?
«В 1984 году на аукционе продавались издательские права на песни Beatles. Его выиграл Майкл Джексон, заплатив почти 50 миллионов долларов — больше, чем предлагал сам Пол Маккартни. С этого времени Джексон получал половину доходов от продаж Beatles (другую половину получали авторы песен, главным образом Маккартни). В 1995 году компания Sony выкупила у Джексона половину его прав, так что в последнее время он получал только четверть доходов.»
 
Опции темы

  #1
Старый 07.12.2013, 05:29
TAIFUN
Admin
Досье
 
Аватар для TAIFUN
По умолчанию Louis Armstrong — The Very Best of Louis Armstrong (2 CD)


1998 - Louis Armstrong — The Very Best of Louis Armstrong (2 CD)




Исполнитель/Artist: Louis Armstrong
Альбом/Album: The Very Best of Louis Armstrong
Год/Year: 1998
Жанр/Genre: Jazz
Страна/Country: Соединённые Штаты
Рекорд-лейбл/Record label: Universal Music International Ltd.
Формат/Format: Monkey's Audio (*.ape)
Качество/Quality: Lossless
Тип рипа/RIP Type: image+.cue
Продолжительность/Length: 02:27:44
Источник/Source: Из интернета
Размер/Size: 724 MB

Сканы в комплекте

Треклист

The Very Best of Louis Armstrong (CD1):
01 What A Wonderful World
02 La Vie En Rose
03 Hello, Dolly
04 On The Sunny Side Of The Street
05 Basin Street Blues
06 Blueberry Hill
07 C'est Si Bon
08 The Dummy Song
09 Chloe
10 I Still Get Jealous
11 When You're Smiling (The Whole World Smiles With You)
12 Kiss Of Fire
13 Sittin' In The Sun
14 A Kiss To Build A Dream On
15 High Society
16 When Its Sleepy Time Down South
17 Takes Two To Tango
18 Skokiaan
19 Hello Brother
20 La Cucaracha

The Very Best Of Louis Armstrong (CD2):
01 Louis Armstrong / Moon River
02 Down By The Riverside
03 Someday
04 April In Portugal
05 When The Saints Go Marching In
06 It's Been A Long, Long Time
07 Sincerely
08 Cabaret
09 I Get Ideas
10 Ramona
11 Memories Of You
12 Only You
13 Gone Fishin'
14 Mahogany Hall Stomp
15 Otchi-Tchor-Ni-Ya
16 Kokomo
17 Jeepers Creepers
18 Dream A Little Dream Of Me
19 Me And Brother Bill
20 Don't Fence Me In (with Velmy Middleton)
[свернуть]

EAC лог

Exact Audio Copy V0.99 prebeta 4 from 23. January 2008

Отчёт EAC об извлечении, выполненном 6. декабря 2008, 15:47

Louis Armstrong / The Very Best of Louis Armstrong (CD1)

Дисковод: ASUS DRW-2014L1T Adapter: 0 ID: 1

Режим чтения : Достоверность
Использование точного потока : Да
Отключение кэша аудио : Да
Использование указателей C2 : Нет

Коррекция смещения при чтении : 6
Способность читать области Lead-in и Lead-out : Нет
Заполнение пропущенных сэмплов тишиной : Да
Удаление блоков с тишиной в начале и конце : Нет
При вычислениях CRC использовались нулевые сэмплы : Да
Интерфейс : Установленный внешний ASPI-интерфейс

Выходной формат : Внутренние WAV-операции
Формат сэмплов : 44.100 Гц; 16 бит; стерео


TOC извлечённого CD

Трек | Старт | Длительность | Начальный сектор | Конечный сектор
---------------------------------------------------------------------
1 | 0:00.00 | 2:19.12 | 0 | 10436
2 | 2:19.12 | 3:25.23 | 10437 | 25834
3 | 5:44.35 | 2:26.42 | 25835 | 36826
4 | 8:11.02 | 5:50.33 | 36827 | 63109
5 | 14:01.35 | 7:18.62 | 63110 | 96021
6 | 21:20.22 | 2:54.00 | 96022 | 109071
7 | 24:14.22 | 3:06.53 | 109072 | 123074
8 | 27:21.00 | 2:20.50 | 123075 | 133624
9 | 29:41.50 | 3:05.45 | 133625 | 147544
10 | 32:47.20 | 2:12.17 | 147545 | 157461
11 | 34:59.37 | 4:03.25 | 157462 | 175711
12 | 39:02.62 | 3:06.30 | 175712 | 189691
13 | 42:09.17 | 3:01.28 | 189692 | 203294
14 | 45:10.45 | 4:29.55 | 203295 | 223524
15 | 49:40.25 | 3:57.70 | 223525 | 241369
16 | 53:38.20 | 3:16.22 | 241370 | 256091
17 | 56:54.42 | 2:56.35 | 256092 | 269326
18 | 59:51.02 | 4:56.70 | 269327 | 291596
19 | 64:47.72 | 3:30.23 | 291597 | 307369
20 | 68:18.20 | 2:40.60 | 307370 | 319429


Характеристики диапазона извлечения и сообщения об ошибках

Выбранный диапазон

Имя файла D:\music\The very best of Louis Armstrong\Louis Armstrong - The Very Best of Louis Armstrong.wav

Пиковый уровень 100.0 %
Качество диапазона 99.9 %
CRC копии 4E5C6975
Копирование... OK

Ошибок не произошло


AccurateRip: сводка

Трек 1 точное извлечение (доверие 4) [66B506C5]
Трек 2 точное извлечение (доверие 4) [034B96A7]
Трек 3 точное извлечение (доверие 4) [E8EF837E]
Трек 4 точное извлечение (доверие 4) [8C518B0F]
Трек 5 точное извлечение (доверие 4) [1563F1E8]
Трек 6 точное извлечение (доверие 4) [71C93B34]
Трек 7 точное извлечение (доверие 4) [3047CC6E]
Трек 8 точное извлечение (доверие 4) [37642552]
Трек 9 точное извлечение (доверие 4) [76299E1B]
Трек 10 точное извлечение (доверие 4) [D9BE9D8D]
Трек 11 точное извлечение (доверие 4) [33942D64]
Трек 12 точное извлечение (доверие 4) [D9C2576C]
Трек 13 точное извлечение (доверие 4) [B4C14DA8]
Трек 14 точное извлечение (доверие 4) [8CB834F6]
Трек 15 точное извлечение (доверие 4) [82948613]
Трек 16 точное извлечение (доверие 4) [0402F236]
Трек 17 точное извлечение (доверие 4) [D2BA923D]
Трек 18 точное извлечение (доверие 4) [B10DCFB6]
Трек 19 точное извлечение (доверие 4) [2276CC77]
Трек 20 точное извлечение (доверие 4) [F364F1A6]

Все треки извлечены точно

Конец отчёта

-----
Exact Audio Copy V0.99 prebeta 4 from 23. January 2008

Отчёт EAC об извлечении, выполненном 6. декабря 2008, 16:22

Louis Armstrong / The Very Best Of Louis Armstrong (CD2)

Дисковод: ASUS DRW-2014L1T Adapter: 0 ID: 1

Режим чтения : Достоверность
Использование точного потока : Да
Отключение кэша аудио : Да
Использование указателей C2 : Нет

Коррекция смещения при чтении : 6
Способность читать области Lead-in и Lead-out : Нет
Заполнение пропущенных сэмплов тишиной : Да
Удаление блоков с тишиной в начале и конце : Нет
При вычислениях CRC использовались нулевые сэмплы : Да
Интерфейс : Установленный внешний ASPI-интерфейс

Выходной формат : Внутренние WAV-операции
Формат сэмплов : 44.100 Гц; 16 бит; стерео


TOC извлечённого CD

Трек | Старт | Длительность | Начальный сектор | Конечный сектор
---------------------------------------------------------------------
1 | 0:00.00 | 2:58.62 | 0 | 13411
2 | 2:58.62 | 3:12.70 | 13412 | 27881
3 | 6:11.57 | 3:39.33 | 27882 | 44339
4 | 9:51.15 | 2:43.22 | 44340 | 56586
5 | 12:34.37 | 2:44.23 | 56587 | 68909
6 | 15:18.60 | 2:20.12 | 68910 | 79421
7 | 17:38.72 | 2:56.35 | 79422 | 92656
8 | 20:35.32 | 2:46.68 | 92657 | 105174
9 | 23:22.25 | 3:26.57 | 105175 | 120681
10 | 26:49.07 | 2:46.15 | 120682 | 133146
11 | 29:35.22 | 3:30.65 | 133147 | 148961
12 | 33:06.12 | 3:11.50 | 148962 | 163336
13 | 36:17.62 | 2:30.08 | 163337 | 174594
14 | 38:47.70 | 2:53.72 | 174595 | 187641
15 | 41:41.67 | 5:32.25 | 187642 | 212566
16 | 47:14.17 | 2:43.15 | 212567 | 224806
17 | 49:57.32 | 4:41.15 | 224807 | 245896
18 | 54:38.47 | 3:15.08 | 245897 | 260529
19 | 57:53.55 | 3:33.12 | 260530 | 276516
20 | 61:26.67 | 5:18.23 | 276517 | 300389


Характеристики диапазона извлечения и сообщения об ошибках

Выбранный диапазон

Имя файла D:\music\The very best of Louis Armstrong\Louis Armstrong - The Very Best Of Louis Armstrong (CD2).wav

Пиковый уровень 100.0 %
Качество диапазона 100.0 %
CRC копии 80E4C143
Копирование... OK

Ошибок не произошло


AccurateRip: сводка

Трек 1 точное извлечение (доверие 4) [375B2175]
Трек 2 точное извлечение (доверие 4) [7E464678]
Трек 3 точное извлечение (доверие 4) [D5F51DCA]
Трек 4 точное извлечение (доверие 4) [AC2A7D72]
Трек 5 точное извлечение (доверие 4) [0F2CC862]
Трек 6 точное извлечение (доверие 4) [822E9A62]
Трек 7 точное извлечение (доверие 4) [064AD1CE]
Трек 8 точное извлечение (доверие 4) [6889ABF5]
Трек 9 точное извлечение (доверие 4) [70D81883]
Трек 10 точное извлечение (доверие 4) [7EA6263F]
Трек 11 точное извлечение (доверие 3) [F3E59E01]
Трек 12 точное извлечение (доверие 4) [570173D3]
Трек 13 точное извлечение (доверие 4) [FF7BB875]
Трек 14 точное извлечение (доверие 4) [51A9998D]
Трек 15 точное извлечение (доверие 4) [7FC7110E]
Трек 16 точное извлечение (доверие 4) [5419B2D7]
Трек 17 точное извлечение (доверие 4) [776BC25E]
Трек 18 точное извлечение (доверие 4) [27E5F4EC]
Трек 19 точное извлечение (доверие 4) [FCFA57BD]
Трек 20 точное извлечение (доверие 4) [9AE2D555]

Все треки извлечены точно

Конец отчёта
[свернуть]

Скачать Louis Armstrong — The Very Best of Louis Armstrong (2 CD)

[свернуть]
My opinion of release: 10/10


Последний раз редактировалось TAIFUN, 07.12.2013 в 07:15.
Вверх
Пользователь сказал cпасибо:
sergych (23.04.2014)
  #2
Старый 23.04.2014, 00:14
TAIFUN
Admin
Досье
 
Аватар для TAIFUN
По умолчанию Re: Louis Armstrong — The Very Best of Louis Armstrong (2 CD)

Какая же атмосфера в машине, когда слушаешь на хорошей акустике Луи, особенно его "What A Wonderful World"
__________________
I love the music
FAQ по форуму
Правила форума
Жизнь человека - это не самое главное в его жизни...

Вверх
Пользователь сказал cпасибо:
sergych (23.04.2014)
Похожие темы
Тема Автор Раздел Ответов Последнее сообщение
Альбом Louis Armstrong meets Oscar Peterson sergych Jazz и Blues 2 10.06.2018 18:59
Альбом Louis Armstrong - Ken burns jazz PUPOKIN Jazz и Blues 0 13.05.2010 09:43
Релиз Paige Armstrong - Wake Up PUPOKIN Alternative Rock 0 22.10.2009 14:33
Альбом Craig Armstrong - Memory Takes My Hand PUPOKIN Classical 0 25.08.2008 18:41
Сборник Louis Armstrong - Gold Collection LUСIAN Jazz и Blues 0 03.05.2008 20:10


Метки
1998 , jazz , louis armstrong , the very best of louis armstrong

Опции темы

Ваши права в разделе
Вы не можете создавать новые темы
Вы не можете отвечать в темах
Вы не можете прикреплять вложения
Вы не можете редактировать свои сообщения

Быстрый переход



Текущее время: 06:29. Часовой пояс GMT +3.
Powered by vBulletin® Version 3.8.10
Copyright ©2000 - 2018, vBulletin Solutions, Inc. Перевод: zCarot
© 2008 - 2018 Taifun With Song
Яндекс.Метрика