TAIFUN With Song
Навигация
Вернуться   TAIFUN With Song > Music (обменник) > Rock > Progressive Rock
Расширенный поиск
Progressive Rock Единственной универсальной характеристикой прогрессивного рока является усложнение музыкальной формы. Это проявляется в удлиннении и усложнении музыкальных пьес, тяготении к циклическим формам академической музыки; расширении репертуара используемых тембров, усложнении метра и ритма, использовании нетрадиционных для рока мелодических и гармонических решений; поэзии, уходящей от тем развлекательной музыки и тяготеющей к философским «вечным темам», фантастической и фентезийной тематике; переплетении с классической и современной академической музыкой, джазом.

А знаете ли Вы, что...
Какой русский музыкальный инструмент мы называем цыганским?
«Семиструнную гитару во всём мире называют русской гитарой, а у нас также распространено название цыганская гитара.»
 
Опции темы

  #1
Старый 20.10.2013, 16:27
sergych
Координатор
Досье
 
Аватар для sergych
Релиз Electric Light Orchestra - The Essential Electric Light Orchestra


2011 - Electric Light Orchestra - The Essential Electric Light Orchestra




Исполнитель/Artist: Electric Light Orchestra
Альбом/Album: The Essential Electric Light Orchestra
Год/Year: 2011
Жанр/Genre: Symphonic rock, art rock, progressive rock
Страна/Country: Европа
Рекорд-лейбл/Record label: SONY Music
Номер в каталоге/Catalogue #: 88697973612
Формат/Format: Free Lossless Audio Codec (*.flac)
Качество/Quality: Lossless
Тип рипа/RIP Type: image+.cue
Продолжительность/Length: 02:25:13
Источник/Source: Из интернета
Размер/Size: 1.12 GB

Сканы в комплекте

Треклист

CD1
01 - 10538 Overture
02 - Roll Over Beethoven (Berry)
03 - Showdown
04 - Ma-Ma-Ma Belle
05 - Can't Get It Out of My Head
06 - Evil Woman
07 - Nightrider
08 - Strange Magic
09 - Livin' Thing
10 - Do Ya
11 - Rockaria!
12 - Telephone Line
13 - Turn to Stone
14 - Mr. Blue Sky
15 - Sweet Talkin' Woman
16 - Wild West Hero
17 - It's Over
18 - Shine a Little Love

CD2
01 - Don't Bring Me Down
02 - The Diary of Horace Wimp
03 - Confusion
04 - Last Train to London
05 - I'm Alive
06 - Xanadu (New Version)
07 - All Over the World
08 - Don't Walk Away
09 - Hold on Tight
10 - Twilight
11 - Ticket to the Moon
12 - The Way Life's Meant to Be
13 - Rock 'n' Roll Is King
14 - Secret Messages
15 - Four Little Diamonds
16 - Calling America
17 - So Serious
18 - Surrender
19 - Latitude 88 North
[свернуть]

youtube.com

[свернуть]

EAC лог

CD1
Exact Audio Copy V0.99 prebeta 5 from 4. May 2009

Отчёт EAC об извлечении, выполненном 6. февраля 2012, 2:55

Electric Light Orchestra / The Essential (CD1)

Дисковод: Optiarc DVD RW AD-7201A Adapter: 0 ID: 0

Режим чтения : Достоверность
Использование точного потока : Да
Отключение кэша аудио : Да
Использование указателей C2 : Нет

Коррекция смещения при чтении : 48
Способность читать области Lead-in и Lead-out : Нет
Заполнение пропущенных сэмплов тишиной : Да
Удаление блоков с тишиной в начале и конце : Нет
При вычислениях CRC использовались нулевые сэмплы : Да
Интерфейс : Установленный внешний ASPI-интерфейс

Выходной формат : Внутренние WAV-операции
Формат сэмплов : 44.100 Гц; 16 бит; стерео


TOC извлечённого CD

Трек | Старт | Длительность | Начальный сектор | Конечный сектор
---------------------------------------------------------------------
1 | 0:00.00 | 4:05.02 | 0 | 18376
2 | 4:05.02 | 4:33.29 | 18377 | 38880
3 | 8:38.31 | 4:10.15 | 38881 | 57645
4 | 12:48.46 | 3:38.33 | 57646 | 74028
5 | 16:27.04 | 3:08.49 | 74029 | 88177
6 | 19:35.53 | 4:13.64 | 88178 | 107216
7 | 23:49.42 | 3:42.74 | 107217 | 123940
8 | 27:32.41 | 4:08.45 | 123941 | 142585
9 | 31:41.11 | 3:33.35 | 142586 | 158595
10 | 35:14.46 | 3:46.57 | 158596 | 175602
11 | 39:01.28 | 3:13.44 | 175603 | 190121
12 | 42:14.72 | 4:41.44 | 190122 | 211240
13 | 46:56.41 | 3:50.01 | 211241 | 228491
14 | 50:46.42 | 5:04.05 | 228492 | 251296
15 | 55:50.47 | 3:49.62 | 251297 | 268533
16 | 59:40.34 | 4:42.73 | 268534 | 289756
17 | 64:23.32 | 4:10.37 | 289757 | 308543
18 | 68:33.69 | 4:11.63 | 308544 | 327431


Характеристики диапазона извлечения и сообщения об ошибках

Выбранный диапазон

Имя файла S:\MUZZIGG\UPLOADS\E.L.O. - The Essential E.L.O (2CD)\Electric Light Orchestra - The Essential (CD1).wav

Пиковый уровень 100.0 %
Качество диапазона 100.0 %
CRC теста 6F0C5509
CRC копии 6F0C5509
Копирование... OK

Ошибок не произошло


AccurateRip: сводка

Трек 1 нет в базе данных
Трек 2 нет в базе данных
Трек 3 нет в базе данных
Трек 4 нет в базе данных
Трек 5 нет в базе данных
Трек 6 нет в базе данных
Трек 7 нет в базе данных
Трек 8 нет в базе данных
Трек 9 нет в базе данных
Трек 10 нет в базе данных
Трек 11 нет в базе данных
Трек 12 нет в базе данных
Трек 13 нет в базе данных
Трек 14 нет в базе данных
Трек 15 нет в базе данных
Трек 16 нет в базе данных
Трек 17 нет в базе данных
Трек 18 нет в базе данных

Ни одного трека нет в базе AccurateRip

Конец отчёта

CD2
Exact Audio Copy V0.99 prebeta 5 from 4. May 2009

Отчёт EAC об извлечении, выполненном 6. февраля 2012, 4:32

Electric Light Orchestra / The Essential (CD2)

Дисковод: Optiarc DVD RW AD-7201A Adapter: 0 ID: 0

Режим чтения : Достоверность
Использование точного потока : Да
Отключение кэша аудио : Да
Использование указателей C2 : Нет

Коррекция смещения при чтении : 48
Способность читать области Lead-in и Lead-out : Нет
Заполнение пропущенных сэмплов тишиной : Да
Удаление блоков с тишиной в начале и конце : Нет
При вычислениях CRC использовались нулевые сэмплы : Да
Интерфейс : Установленный внешний ASPI-интерфейс

Выходной формат : Внутренние WAV-операции
Формат сэмплов : 44.100 Гц; 16 бит; стерео


TOC извлечённого CD

Трек | Старт | Длительность | Начальный сектор | Конечный сектор
---------------------------------------------------------------------
1 | 0:00.00 | 4:04.28 | 0 | 18327
2 | 4:04.28 | 4:17.50 | 18328 | 37652
3 | 8:22.03 | 3:40.64 | 37653 | 54216
4 | 12:02.67 | 4:32.18 | 54217 | 74634
5 | 16:35.10 | 3:44.53 | 74635 | 91487
6 | 20:19.63 | 3:22.71 | 91488 | 106708
7 | 23:42.59 | 4:03.57 | 106709 | 124990
8 | 27:46.41 | 4:47.64 | 124991 | 146579
9 | 32:34.30 | 3:08.16 | 146580 | 160695
10 | 35:42.46 | 3:45.31 | 160696 | 177601
11 | 39:28.02 | 4:08.42 | 177602 | 196243
12 | 43:36.44 | 4:40.04 | 196244 | 217247
13 | 48:16.48 | 3:08.30 | 217248 | 231377
14 | 51:25.03 | 4:45.30 | 231378 | 252782
15 | 56:10.33 | 4:07.21 | 252783 | 271328
16 | 60:17.54 | 3:30.74 | 271329 | 287152
17 | 63:48.53 | 2:44.26 | 287153 | 299478
18 | 66:33.04 | 2:33.55 | 299479 | 311008
19 | 69:06.59 | 3:23.33 | 311009 | 326266


Характеристики диапазона извлечения и сообщения об ошибках

Выбранный диапазон

Имя файла S:\MUZZIGG\UPLOADS\E.L.O. - The Essential E.L.O (2CD)\Electric Light Orchestra - The Essential (2CD)\CD2\Electric Light Orchestra - The Essential (CD2).wav

Пиковый уровень 100.0 %
Качество диапазона 100.0 %
CRC теста 9FA0190F
CRC копии 9FA0190F
Копирование... OK

Ошибок не произошло


AccurateRip: сводка

Трек 1 нет в базе данных
Трек 2 нет в базе данных
Трек 3 нет в базе данных
Трек 4 нет в базе данных
Трек 5 нет в базе данных
Трек 6 нет в базе данных
Трек 7 нет в базе данных
Трек 8 нет в базе данных
Трек 9 нет в базе данных
Трек 10 нет в базе данных
Трек 11 нет в базе данных
Трек 12 нет в базе данных
Трек 13 нет в базе данных
Трек 14 нет в базе данных
Трек 15 нет в базе данных
Трек 16 нет в базе данных
Трек 17 нет в базе данных
Трек 18 нет в базе данных
Трек 19 нет в базе данных

Ни одного трека нет в базе AccurateRip

Конец отчёта
[свернуть]

Файл CUE

CD1
REM GENRE Rock
REM DATE 2011
REM DISCID FC110D12
REM COMMENT "ExactAudioCopy v0.99pb5"
PERFORMER "Electric Light Orchestra"
TITLE "The Essential Electric Light Orchestra (CD1)"
FILE "ELO - The Essential (CD1).wav" WAVE
TRACK 01 AUDIO
TITLE "10538 Overture"
PERFORMER "Electric Light Orchestra"
INDEX 01 00:00:00
TRACK 02 AUDIO
TITLE "Roll Over Beethoven"
PERFORMER "Electric Light Orchestra"
INDEX 00 04:03:40
INDEX 01 04:05:02
TRACK 03 AUDIO
TITLE "Showdown"
PERFORMER "Electric Light Orchestra"
INDEX 00 08:36:72
INDEX 01 08:38:31
TRACK 04 AUDIO
TITLE "Ma-Ma-Ma Belle"
PERFORMER "Electric Light Orchestra"
INDEX 00 12:48:10
INDEX 01 12:48:46
TRACK 05 AUDIO
TITLE "Can't Get It Out Of My Head"
PERFORMER "Electric Light Orchestra"
INDEX 00 16:26:13
INDEX 01 16:27:04
TRACK 06 AUDIO
TITLE "Evil Woman"
PERFORMER "Electric Light Orchestra"
INDEX 00 19:34:12
INDEX 01 19:35:53
TRACK 07 AUDIO
TITLE "Nightrider"
PERFORMER "Electric Light Orchestra"
INDEX 00 23:48:08
INDEX 01 23:49:42
TRACK 08 AUDIO
TITLE "Strange Magic"
PERFORMER "Electric Light Orchestra"
INDEX 00 27:32:19
INDEX 01 27:32:41
TRACK 09 AUDIO
TITLE "Livin' Thing"
PERFORMER "Electric Light Orchestra"
INDEX 00 31:38:51
INDEX 01 31:41:11
TRACK 10 AUDIO
TITLE "Do Ya"
PERFORMER "Electric Light Orchestra"
INDEX 00 35:13:13
INDEX 01 35:14:46
TRACK 11 AUDIO
TITLE "Rockaria!"
PERFORMER "Electric Light Orchestra"
INDEX 00 38:59:74
INDEX 01 39:01:28
TRACK 12 AUDIO
TITLE "Telephone Line"
PERFORMER "Electric Light Orchestra"
INDEX 00 42:14:45
INDEX 01 42:14:72
TRACK 13 AUDIO
TITLE "Turn To Stone"
PERFORMER "Electric Light Orchestra"
INDEX 00 46:55:17
INDEX 01 46:56:41
TRACK 14 AUDIO
TITLE "Mr. Blue Sky"
PERFORMER "Electric Light Orchestra"
INDEX 00 50:45:11
INDEX 01 50:46:42
TRACK 15 AUDIO
TITLE "Sweet Takin' Woman"
PERFORMER "Electric Light Orchestra"
INDEX 00 55:49:16
INDEX 01 55:50:47
TRACK 16 AUDIO
TITLE "Wild West Hero"
PERFORMER "Electric Light Orchestra"
INDEX 00 59:39:08
INDEX 01 59:40:34
TRACK 17 AUDIO
TITLE "It's Over"
PERFORMER "Electric Light Orchestra"
INDEX 00 64:21:55
INDEX 01 64:23:32
TRACK 18 AUDIO
TITLE "Shine A Little Love"
PERFORMER "Electric Light Orchestra"
INDEX 00 68:32:37
INDEX 01 68:33:69

CD2
REM GENRE Rock
REM DATE 2011
REM DISCID 2910FE13
REM COMMENT "ExactAudioCopy v0.99pb5"
PERFORMER "Electric Light Orchestra"
TITLE "The Essential Electric Light Orchestra (CD2)"
FILE "ELO - The Essential (CD2).wav" WAVE
TRACK 01 AUDIO
TITLE "Don't Bring Me Down"
PERFORMER "Electric Light Orchestra"
INDEX 01 00:00:00
TRACK 02 AUDIO
TITLE "The Dairy Of Horace Wimp"
PERFORMER "Electric Light Orchestra"
INDEX 00 04:03:65
INDEX 01 04:04:28
TRACK 03 AUDIO
TITLE "Confusion"
PERFORMER "Electric Light Orchestra"
INDEX 00 08:21:38
INDEX 01 08:22:03
TRACK 04 AUDIO
TITLE "Last Train To London"
PERFORMER "Electric Light Orchestra"
INDEX 01 12:02:67
TRACK 05 AUDIO
TITLE "I'm Alive"
PERFORMER "Electric Light Orchestra"
INDEX 00 16:32:66
INDEX 01 16:35:10
TRACK 06 AUDIO
TITLE "Xanadu"
PERFORMER "Electric Light Orchestra"
INDEX 00 20:19:06
INDEX 01 20:19:63
TRACK 07 AUDIO
TITLE "All Over The World"
PERFORMER "Electric Light Orchestra"
INDEX 00 23:41:32
INDEX 01 23:42:59
TRACK 08 AUDIO
TITLE "Don't Walk Away"
PERFORMER "Electric Light Orchestra"
INDEX 00 27:45:04
INDEX 01 27:46:41
TRACK 09 AUDIO
TITLE "Hold On Tight"
PERFORMER "Electric Light Orchestra"
INDEX 00 32:33:70
INDEX 01 32:34:30
TRACK 10 AUDIO
TITLE "Twilight"
PERFORMER "Electric Light Orchestra"
INDEX 00 35:41:10
INDEX 01 35:42:46
TRACK 11 AUDIO
TITLE "Ticket To The Moon"
PERFORMER "Electric Light Orchestra"
INDEX 00 39:26:42
INDEX 01 39:28:02
TRACK 12 AUDIO
TITLE "The Way Life's Meant To Be"
PERFORMER "Electric Light Orchestra"
INDEX 00 43:35:30
INDEX 01 43:36:44
TRACK 13 AUDIO
TITLE "Rock And Roll Is King"
PERFORMER "Electric Light Orchestra"
INDEX 00 48:15:35
INDEX 01 48:16:48
TRACK 14 AUDIO
TITLE "Secret Messagers"
PERFORMER "Electric Light Orchestra"
INDEX 00 51:24:58
INDEX 01 51:25:03
TRACK 15 AUDIO
TITLE "Four Little Diamonds"
PERFORMER "Electric Light Orchestra"
INDEX 00 56:09:04
INDEX 01 56:10:33
TRACK 16 AUDIO
TITLE "Calling America"
PERFORMER "Electric Light Orchestra"
INDEX 00 60:16:01
INDEX 01 60:17:54
TRACK 17 AUDIO
TITLE "So Serious"
PERFORMER "Electric Light Orchestra"
INDEX 00 63:47:23
INDEX 01 63:48:53
TRACK 18 AUDIO
TITLE "Surrender"
PERFORMER "Electric Light Orchestra"
INDEX 00 66:31:05
INDEX 01 66:33:04
TRACK 19 AUDIO
TITLE "Latitude 88 North"
PERFORMER "Electric Light Orchestra"
INDEX 00 69:05:65
INDEX 01 69:06:59
[свернуть]

Лог проверки качества

CD1
AUDIOCHECKER v2.0 beta (build 457) - by Dester -
~~~~~~~~~~~~~~~~~~~~~~~~~~~~~~~~~~
-=== НЕ РЕДАКТИРУЙТЕ ЭТОТ ФАЙЛ! ===-

Путь: ...\CD1

01 -=- ELO - The Essential (CD1).flac -=- CDDA (100%)

240983428

CD2
AUDIOCHECKER v2.0 beta (build 457) - by Dester -
~~~~~~~~~~~~~~~~~~~~~~~~~~~~~~~~~~
-=== НЕ РЕДАКТИРУЙТЕ ЭТОТ ФАЙЛ! ===-

Путь: ...\CD2

01 -=- ELO - The Essential (CD2).flac -=- CDDA (100%)

243277188
[свернуть]

Скачать Electric Light Orchestra - The Essential Electric Light Orchestra



password: sergych
[свернуть]
My opinion of release: 10/10
__________________
TAIFUN.Wings of Soul

Вверх
Пользователь сказал cпасибо:
VladislavUdalov (13.04.2018)
Похожие темы
Тема Автор Раздел Ответов Последнее сообщение
Альбом Electric Light Orchestra - Out Of The Blue sergych Progressive Rock 6 10.04.2016 15:44
Альбом Electric Light Orchestra - On the Third Day sergych Progressive Rock 1 12.07.2015 15:05
Сборник Electric Light Orchestra - Ole' ELO sergych Progressive Rock 0 20.10.2013 07:22
Альбом Electric Light Orchestra - ELO 2 Afula Progressive Rock 1 19.10.2013 20:57


Метки
2011 , art rock , electric light orchestra , elo , progressive rock , rock , symphonic rock , the essential electric light orchestra

Опции темы

Ваши права в разделе
Вы не можете создавать новые темы
Вы не можете отвечать в темах
Вы не можете прикреплять вложения
Вы не можете редактировать свои сообщения

Быстрый переход



Текущее время: 04:05. Часовой пояс GMT +3.
Powered by vBulletin® Version 3.8.10
Copyright ©2000 - 2018, vBulletin Solutions, Inc. Перевод: zCarot
© 2008 - 2018 Taifun With Song
Яндекс.Метрика