TAIFUN With Song
Навигация
Вернуться   TAIFUN With Song > Music (обменник) > Rock > Progressive Rock
Расширенный поиск
Progressive Rock Единственной универсальной характеристикой прогрессивного рока является усложнение музыкальной формы. Это проявляется в удлиннении и усложнении музыкальных пьес, тяготении к циклическим формам академической музыки; расширении репертуара используемых тембров, усложнении метра и ритма, использовании нетрадиционных для рока мелодических и гармонических решений; поэзии, уходящей от тем развлекательной музыки и тяготеющей к философским «вечным темам», фантастической и фентезийной тематике; переплетении с классической и современной академической музыкой, джазом.

А знаете ли Вы, что...
Какая песня Стинга, понимаемая многими как гимн любви, имеет противоположный смысл?
«Песня «Every Breath You Take», визитная карточка группы The Police, многими воспринимается как гимн любви и даже используется как главная тема на свадьбах. Однако сочинивший песню Стинг говорил, что такое понимание в корне неверно. Он написал текст во время развода с женой, и лирический герой песни — вовсе не влюблённый романтик, а злой ревнивец, следящий за каждым шагом объекта своей страсти. В общем настроении текста, по мнению Стинга, можно даже увидеть аллегорию на Большого Брата.»
 
Опции темы

  #1
Старый 20.10.2013, 07:22
sergych
Координатор
Досье
 
Аватар для sergych
Релиз Electric Light Orchestra - Ole' ELO


1976(1990) - Electric Light Orchestra - Ole' ELO




Исполнитель/Artist: Electric Light Orchestra
Альбом/Album: Ole' ELO
Год/Year: 1976
Ремастеринг/Remaster: 1990
Жанр/Genre: Symphonic rock, rock, art rock
Страна/Country: Австрия
Рекорд-лейбл/Record label: Epic
Номер в каталоге/Catalogue #: 466305 2 / 5099746630522
Формат/Format: Free Lossless Audio Codec (*.flac)
Качество/Quality: Lossless
Тип рипа/RIP Type: image+.cue
Продолжительность/Length: 00:43:58
Источник/Source: Из интернета
Размер/Size: 288.2 MB

Сканы в комплекте

Треклист

01 - 10538 Overture [From the album The Electric Light Orchestra (1971), issued in the US in 1972 under the title No Answer]
02 - Kuiama [From the album Electric Light Orchestra II (1973)]
03 - Roll Over Beethoven [From the album Electric Light Orchestra II (1973)]
04 - Showdown [1973 non-album single, later included in the US version of the album On the Third Day (1973)]
05 - Ma-Ma-Ma-Belle [From On the Third Day]
06 - Can't Get It Out Of My Head [From the album Eldorado, A Symphony by The Electric Light Orchestra (1974)]
07 - Boy Blue [Single edit; full version included on Eldorado]
08 - Evil Woman [From the album Face the Music (1975)]
09 - Strange Magic [From Face the Music]
[свернуть]

youtube.com

[свернуть]

EAC лог

Exact Audio Copy V0.99 prebeta 5 from 4. May 2009

EAC extraction logfile from 28. December 2009, 15:14

Electric Light Orchestra / Olй ELO

Used drive : HL-DT-STDVDRAM_GSA-T20N Adapter: 1 ID: 0

Read mode : Secure
Utilize accurate stream : Yes
Defeat audio cache : Yes
Make use of C2 pointers : No

Read offset correction : 667
Overread into Lead-In and Lead-Out : No
Fill up missing offset samples with silence : Yes
Delete leading and trailing silent blocks : No
Null samples used in CRC calculations : Yes
Used interface : Native Win32 interface for Win NT & 2000

Used output format : User Defined Encoder
Selected bitrate : 768 kBit/s
Quality : High
Add ID3 tag : No
Command line compressor : C:\Program Files\Exact Audio Copy\Flac\flac.exe
Additional command line options : -6 -V -T "ARTIST=%a" -T "TITLE=%t" -T "ALBUM=%g" -T "DATE=%y" -T "TRACKNUMBER=%n" -T "GENRE=%m" -T "COMMENT=%e" %s -o %d


TOC of the extracted CD

Track | Start | Length | Start sector | End sector
---------------------------------------------------------
1 | 0:00.00 | 5:30.05 | 0 | 24754
2 | 5:30.05 | 9:10.70 | 24755 | 66074
3 | 14:41.00 | 4:33.02 | 66075 | 86551
4 | 19:14.02 | 4:12.33 | 86552 | 105484
5 | 23:26.35 | 3:33.45 | 105485 | 121504
6 | 27:00.05 | 4:23.52 | 121505 | 141281
7 | 31:23.57 | 4:14.35 | 141282 | 160366
8 | 35:38.17 | 4:18.60 | 160367 | 179776
9 | 39:57.02 | 4:01.70 | 179777 | 197921


Range status and errors

Selected range

Filename D:\Music\Electric Light Orchestra - Ole ELO.wav

Peak level 94.5 %
Range quality 100.0 %
Copy CRC 349D9194
Copy OK

No errors occurred


AccurateRip summary

Track 1 accurately ripped (confidence 4) [4047AB93]
Track 2 accurately ripped (confidence 4) [F2A95B27]
Track 3 accurately ripped (confidence 4) [98587283]
Track 4 accurately ripped (confidence 4) [5F4025EC]
Track 5 accurately ripped (confidence 4) [FFD9A240]
Track 6 accurately ripped (confidence 4) [AB26EB46]
Track 7 accurately ripped (confidence 4) [A4CD54C1]
Track 8 accurately ripped (confidence 4) [23E2257F]
Track 9 accurately ripped (confidence 3) [E0ACE2DA]

All tracks accurately ripped

End of status report
[свернуть]

Файл CUE

REM GENRE Rock
REM DATE 1990
REM DISCID 760A4E09
REM COMMENT "ExactAudioCopy v0.99pb5"
PERFORMER "Electric Light Orchestra"
TITLE "Olй ELO"
FILE "Electric Light Orchestra - Ole ELO.flac" WAVE
TRACK 01 AUDIO
TITLE "10538 Overture"
PERFORMER "Electric Light Orchestra"
INDEX 01 00:00:00
TRACK 02 AUDIO
TITLE "Kuiama"
PERFORMER "Electric Light Orchestra"
INDEX 00 05:27:67
INDEX 01 05:30:05
TRACK 03 AUDIO
TITLE "Roll Over Beethoven"
PERFORMER "Electric Light Orchestra"
INDEX 00 14:40:40
INDEX 01 14:41:00
TRACK 04 AUDIO
TITLE "Showdown"
PERFORMER "Electric Light Orchestra"
INDEX 00 19:12:50
INDEX 01 19:14:02
TRACK 05 AUDIO
TITLE "Ma-Ma-Ma-Belle"
PERFORMER "Electric Light Orchestra"
INDEX 00 23:24:65
INDEX 01 23:26:35
TRACK 06 AUDIO
TITLE "Can't Get It Out Of My Head"
PERFORMER "Electric Light Orchestra"
INDEX 00 26:58:45
INDEX 01 27:00:05
TRACK 07 AUDIO
TITLE "Boy Blue"
PERFORMER "Electric Light Orchestra"
INDEX 00 31:23:25
INDEX 01 31:23:57
TRACK 08 AUDIO
TITLE "Evil Woman"
PERFORMER "Electric Light Orchestra"
INDEX 00 35:36:62
INDEX 01 35:38:17
TRACK 09 AUDIO
TITLE "Strange Magic"
PERFORMER "Electric Light Orchestra"
INDEX 00 39:53:27
INDEX 01 39:57:02
[свернуть]

Лог проверки качества

AUDIOCHECKER v2.0 beta (build 457) - by Dester -
~~~~~~~~~~~~~~~~~~~~~~~~~~~~~~~~~~
-=== НЕ РЕДАКТИРУЙТЕ ЭТОТ ФАЙЛ! ===-

Путь: ...\1976 - Ole' ELO (466305 2)

1 -=- Electric Light Orchestra - Ole ELO.flac -=- CDDA (100%)

25406100
[свернуть]

Скачать Electric Light Orchestra - Ole' ELO



password: sergych
[свернуть]
My opinion of release: 9/10
__________________
TAIFUN.Wings of Soul

Вверх
Пользователь сказал cпасибо:
VladislavUdalov (13.04.2018)
Похожие темы
Тема Автор Раздел Ответов Последнее сообщение
Альбом Electric Light Orchestra - Time sergych Progressive Rock 1 13.07.2015 19:58
Альбом Electric Light Orchestra - On the Third Day sergych Progressive Rock 1 12.07.2015 15:05
Альбом Electric Light Orchestra - ELO 2 Afula Progressive Rock 1 19.10.2013 20:57
Альбом Electric Light Orchestra - No Answer Afula Progressive Rock 1 19.10.2013 20:07


Метки
1976 , art rock , electric light orchestra , elo , ole' elo , rock , symphonic rock

Опции темы

Ваши права в разделе
Вы не можете создавать новые темы
Вы не можете отвечать в темах
Вы не можете прикреплять вложения
Вы не можете редактировать свои сообщения

Быстрый переход



Текущее время: 23:29. Часовой пояс GMT +3.
Powered by vBulletin® Version 3.8.10
Copyright ©2000 - 2018, vBulletin Solutions, Inc. Перевод: zCarot
© 2008 - 2018 Taifun With Song
Яндекс.Метрика