TAIFUN With Song
Навигация
Вернуться   TAIFUN With Song > Music (обменник) > Rock > Progressive Rock
Расширенный поиск
Progressive Rock Единственной универсальной характеристикой прогрессивного рока является усложнение музыкальной формы. Это проявляется в удлиннении и усложнении музыкальных пьес, тяготении к циклическим формам академической музыки; расширении репертуара используемых тембров, усложнении метра и ритма, использовании нетрадиционных для рока мелодических и гармонических решений; поэзии, уходящей от тем развлекательной музыки и тяготеющей к философским «вечным темам», фантастической и фентезийной тематике; переплетении с классической и современной академической музыкой, джазом.

А знаете ли Вы, что...
Где собачий вальс зовут ослиным маршем, а где — кошачьей полькой?
«Собачий вальс в разных странах называется по-разному. В Германии, Бельгии, Нидерландах — блошиный вальс. В Болгарии — кошачий марш, а в Финляндии — кошачья полька. В Венгрии — ослиный марш, а во Франции его почему-то называют отбивной котлетой.»
 
Опции темы

  #1
Старый 19.10.2013, 21:54
sergych
Координатор
Досье
 
Аватар для sergych
Релиз Electric Light Orchestra - On the Third Day


1973(1988) - Electric Light Orchestra - On the Third Day




Исполнитель/Artist: Electric Light Orchestra
Альбом/Album: On the Third Day
Год/Year: 1973
Ремастеринг/Remaster: 1988
Жанр/Genre: Symphonic rock, progressive rock
Страна/Country: Австрия
Рекорд-лейбл/Record label: Epic
Номер в каталоге/Catalogue #: EPC 460728-2 / 5099746072827
Формат/Format: Free Lossless Audio Codec (*.flac)
Качество/Quality: Lossless
Тип рипа/RIP Type: image+.cue
Продолжительность/Length: 00:39:34
Источник/Source: Из интернета
Размер/Size: 262.7 MB

Сканы в комплекте

Треклист

01 - Ocean Breakup / King Of The Universe
02 - Bluebird Is Dead
03 - Oh No Not Susan
04 - New World Rising / Ocean Breakup Reprise
05 - Showdown
06 - Daybreaker
07 - Ma-Ma-Ma Belle
08 - Dreaming Of 4000
09 - In The Hall Of The Mountain King
[свернуть]

youtube.com

[свернуть]

Исполнители/Performers

Jeff Lynne – Vocals, Guitars
Bev Bevan – Drums, Percussion
Richard Tandy – Piano, Moog
Mike de Albuquerque – Bass, Backing Vocals
Wilf Gibson – Violin on tracks 5–14
Colin Walker – Cello on tracks 5–14
Mike Edwards – Cello
Mik Kaminski – Violin on tracks 1–4

Additional personnel
Marc Bolan – Guitar on tracks 8
[свернуть]

EAC лог

Exact Audio Copy V0.99 prebeta 5 from 4. May 2009

EAC extraction logfile from 9. January 2010, 13:53

Electric Light Orchestra / On The Third Day

Used drive : HL-DT-STDVDRAM_GSA-T20N Adapter: 0 ID: 0

Read mode : Secure
Utilize accurate stream : Yes
Defeat audio cache : Yes
Make use of C2 pointers : No

Read offset correction : 667
Overread into Lead-In and Lead-Out : No
Fill up missing offset samples with silence : Yes
Delete leading and trailing silent blocks : No
Null samples used in CRC calculations : Yes
Used interface : Native Win32 interface for Win NT & 2000

Used output format : User Defined Encoder
Selected bitrate : 768 kBit/s
Quality : High
Add ID3 tag : No
Command line compressor : C:\Program Files\Exact Audio Copy\Flac\flac.exe
Additional command line options : -6 -V -T "ARTIST=%a" -T "TITLE=%t" -T "ALBUM=%g" -T "DATE=%y" -T "TRACKNUMBER=%n" -T "GENRE=%m" -T "COMMENT=%e" %s -o %d


TOC of the extracted CD

Track | Start | Length | Start sector | End sector
---------------------------------------------------------
1 | 0:00.00 | 4:06.02 | 0 | 18451
2 | 4:06.02 | 4:22.15 | 18452 | 38116
3 | 8:28.17 | 3:28.00 | 38117 | 53716
4 | 11:56.17 | 4:06.48 | 53717 | 72214
5 | 16:02.65 | 4:12.15 | 72215 | 91129
6 | 20:15.05 | 3:50.30 | 91130 | 108409
7 | 24:05.35 | 3:52.32 | 108410 | 125841
8 | 27:57.67 | 5:03.38 | 125842 | 148604
9 | 33:01.30 | 6:32.67 | 148605 | 178071


Range status and errors

Selected range

Filename D:\Music\Electric Light Orchestra - On The Third Day.wav

Peak level 100.0 %
Range quality 99.9 %
Test CRC 7BB0BB33
Copy CRC 7BB0BB33
Copy OK

No errors occurred


AccurateRip summary

Track 1 accurately ripped (confidence 8) [FE759A8C]
Track 2 accurately ripped (confidence 8) [841B8147]
Track 3 accurately ripped (confidence 8) [146DC2D3]
Track 4 accurately ripped (confidence 8) [36EE93B1]
Track 5 accurately ripped (confidence 8) [9805722D]
Track 6 accurately ripped (confidence 8) [1AF9043B]
Track 7 accurately ripped (confidence 8) [D0C247AE]
Track 8 accurately ripped (confidence 8) [0A73A080]
Track 9 accurately ripped (confidence 8) [52E90723]

All tracks accurately ripped

End of status report
[свернуть]

Файл CUE

REM GENRE Rock
REM DATE 1973
REM DISCID 80094609
REM COMMENT "ExactAudioCopy v0.99pb5"
PERFORMER "Electric Light Orchestra"
TITLE "On The Third Day"
FILE "Electric Light Orchestra - On The Third Day.flac" WAVE
TRACK 01 AUDIO
TITLE "Ocean Breakup/King Of The Universe"
PERFORMER "Electric Light Orchestra"
INDEX 01 00:00:00
TRACK 02 AUDIO
TITLE "Bluebird Is Dead"
PERFORMER "Electric Light Orchestra"
INDEX 01 04:06:02
TRACK 03 AUDIO
TITLE "Oh No Not Susan"
PERFORMER "Electric Light Orchestra"
INDEX 01 08:28:17
TRACK 04 AUDIO
TITLE "New World Rising/Ocean Breakup Reprise"
PERFORMER "Electric Light Orchestra"
INDEX 01 11:56:17
TRACK 05 AUDIO
TITLE "Showdown"
PERFORMER "Electric Light Orchestra"
INDEX 00 16:00:02
INDEX 01 16:02:65
TRACK 06 AUDIO
TITLE "Daybreaker"
PERFORMER "Electric Light Orchestra"
INDEX 00 20:12:22
INDEX 01 20:15:05
TRACK 07 AUDIO
TITLE "Ma-Ma-Ma Belle"
PERFORMER "Electric Light Orchestra"
INDEX 01 24:05:35
TRACK 08 AUDIO
TITLE "Dreaming Of 4000"
PERFORMER "Electric Light Orchestra"
INDEX 01 27:57:67
TRACK 09 AUDIO
TITLE "In The Hall Of The Mountain King"
PERFORMER "Electric Light Orchestra"
INDEX 00 32:59:65
INDEX 01 33:01:30
[свернуть]

Лог проверки качества

AUDIOCHECKER v2.0 beta (build 457) - by Dester -
~~~~~~~~~~~~~~~~~~~~~~~~~~~~~~~~~~
-=== НЕ РЕДАКТИРУЙТЕ ЭТОТ ФАЙЛ! ===-

Путь: ...\1973 - On The Third Day (EPC 460728 2)

1 -=- Electric Light Orchestra - On The Third Day.flac -=- CDDA (100%)

191319108
[свернуть]

Скачать Electric Light Orchestra - On the Third Day



password: sergych
[свернуть]
My opinion of release: 10/10
__________________
TAIFUN.Wings of Soul

Вверх
Пользователь сказал cпасибо:
VladislavUdalov (26.09.2017)
  #2
Старый 12.07.2015, 15:05
sergych
Координатор
Досье
 
Аватар для sergych
Релиз Re: Electric Light Orchestra - On the Third Day


1973(2006) - Electric Light Orchestra - On the Third Day




Исполнитель/Artist: Electric Light Orchestra
Альбом/Album: On the Third Day
Год/Year: 1973
Ремастеринг/Remaster: 2006
Жанр/Genre: Symphonic rock, progressive rock
Страна/Country: Европа
Рекорд-лейбл/Record label: Sony BMG Music
Номер в каталоге/Catalogue #: 82796942712
Формат/Format: Free Lossless Audio Codec (*.flac)
Качество/Quality: Lossless
Тип рипа/RIP Type: image+.cue
Продолжительность/Length: 00:57:35
Источник/Source: Собственный рип
Размер/Size: 394.4 MB

Сканы в комплекте

Треклист

01. Ocean Breakup / King Of The Universe [0:04:07.05]
02. Bluebird Is Dead [0:04:42.58]
03. Oh No Not Susan [0:03:07.15]
04. New World Rising / Ocean Breakup (Reprise) [0:04:05.05]
05. Showdown [0:04:09.17]
06. Daybreaker [0:03:51.26]
07. Ma-Ma-Ma Belle [0:03:56.47]
08. Dreaming Of 4000 [0:05:04.27]
09. In The Hall Of The Mountain King (E. Grieg arr. by ELO) [0:06:37.51]

Bonus tracks
10. Auntie (Ma-Ma-Ma Belle - Take 1) [0:01:19.15]
11. Auntie (Ma-Ma-Ma Belle - Take 2) [0:04:05.08]
12. Mambo (Dreaming Of 4000 - Alternate Mix) [0:05:05.12]
13. Everyone's Born To Die [0:03:43.30]
14. Interludes [0:03:40.43]
[свернуть]

youtube.com

[свернуть]

Исполнители/Performers

Jeff Lynne – vocals, guitars
Bev Bevan – drums, percussion
Richard Tandy – piano, Moog, clavinet, electric piano
Mike de Albuquerque – bass, backing vocals
Wilf Gibson – violin on tracks 5–14
Colin Walker – cello on tracks 5–14
Mike Edwards – cello
Mik Kaminski – violin on tracks 1–4
[свернуть]

EAC лог

Exact Audio Copy V1.0 beta 3 from 29. August 2011

EAC extraction logfile from 12. July 2015, 12:26

Electric Light Orchestra / On The Third Day

Used drive : ATAPI iHAS124 D Adapter: 0 ID: 2

Read mode : Secure
Utilize accurate stream : Yes
Defeat audio cache : Yes
Make use of C2 pointers : No

Read offset correction : 6
Overread into Lead-In and Lead-Out : No
Fill up missing offset samples with silence : Yes
Delete leading and trailing silent blocks : No
Null samples used in CRC calculations : Yes
Used interface : Installed external ASPI interface

Used output format : User Defined Encoder
Selected bitrate : 1024 kBit/s
Quality : High
Add ID3 tag : No
Command line compressor : C:\Program Files (x86)\Exact Audio Copy\Flac\flac.exe
Additional command line options : -6 -V -T "ARTIST=%artist%" -T "TITLE=%title%" -T "ALBUM=%albumtitle%" -T "DATE=%year%" -T "TRACKNUMBER=%tracknr%" -T "GENRE=%genre%" -T "COMMENT=%comment%" -T "BAND=%albuminterpret%" -T "COMPOSER=%composer%" %haslyrics%--tag-from-file=LYRICS="%lyricsfile%"%haslyrics% -T "DISCNUMBER=%cdnumber%" -T "TOTALDISCS=%totalcds%" -T "TOTALTRACKS=%numtracks%" %hascover%--picture="%coverfile%"%hascover% %source% -o %dest%


TOC of the extracted CD

Track | Start | Length | Start sector | End sector
---------------------------------------------------------
1 | 0:00.00 | 4:07.05 | 0 | 18529
2 | 4:07.05 | 4:42.58 | 18530 | 39737
3 | 8:49.63 | 3:07.15 | 39738 | 53777
4 | 11:57.03 | 4:05.05 | 53778 | 72157
5 | 16:02.08 | 4:09.17 | 72158 | 90849
6 | 20:11.25 | 3:51.26 | 90850 | 108200
7 | 24:02.51 | 3:56.47 | 108201 | 125947
8 | 27:59.23 | 5:04.27 | 125948 | 148774
9 | 33:03.50 | 6:37.51 | 148775 | 178600
10 | 39:41.26 | 1:19.15 | 178601 | 184540
11 | 41:00.41 | 4:05.08 | 184541 | 202923
12 | 45:05.49 | 5:05.12 | 202924 | 225810
13 | 50:10.61 | 3:43.30 | 225811 | 242565
14 | 53:54.16 | 3:40.43 | 242566 | 259108


Range status and errors

Selected range

Filename C:\mm\Electric Light Orchestra\1973(2006) - On The Third Day [82796942712]\Electric Light Orchestra - On The Third Day.wav

Peak level 99.9 %
Extraction speed 8.9 X
Range quality 99.9 %
Test CRC EA4513BF
Copy CRC EA4513BF
Copy OK

No errors occurred


AccurateRip summary

Track 1 accurately ripped (confidence 38) [76FE330F] (AR v2)
Track 2 accurately ripped (confidence 38) [EB94459C] (AR v2)
Track 3 accurately ripped (confidence 38) [5489DEDA] (AR v2)
Track 4 accurately ripped (confidence 38) [733D898D] (AR v2)
Track 5 accurately ripped (confidence 39) [13D249E7] (AR v2)
Track 6 accurately ripped (confidence 38) [797658C7] (AR v2)
Track 7 accurately ripped (confidence 38) [193FACAB] (AR v2)
Track 8 accurately ripped (confidence 38) [CE337427] (AR v2)
Track 9 accurately ripped (confidence 37) [1AC34771] (AR v2)
Track 10 accurately ripped (confidence 36) [E5667A45] (AR v2)
Track 11 accurately ripped (confidence 35) [9BB47159] (AR v2)
Track 12 accurately ripped (confidence 35) [E6FA4ECC] (AR v2)
Track 13 accurately ripped (confidence 35) [C6192A93] (AR v2)
Track 14 accurately ripped (confidence 35) [FA8EE43F] (AR v2)

All tracks accurately ripped

End of status report
[свернуть]

Файл CUE

REM GENRE "Progressive Rock"
REM DATE 2006
REM DISCID BB0D7E0E
REM COMMENT "ExactAudioCopy v1.0b3"
PERFORMER "Electric Light Orchestra"
TITLE "On The Third Day "
FILE "Electric Light Orchestra - On The Third Day.flac" WAVE
TRACK 01 AUDIO
TITLE "Ocean Breakup / King Of The Universe"
PERFORMER "Electric Light Orchestra"
INDEX 01 00:00:00
TRACK 02 AUDIO
TITLE "Bluebird Is Dead"
PERFORMER "Electric Light Orchestra"
INDEX 01 04:07:05
TRACK 03 AUDIO
TITLE "Oh No Not Susan"
PERFORMER "Electric Light Orchestra"
INDEX 01 08:49:63
TRACK 04 AUDIO
TITLE "New World Rising / Ocean Breakup (Reprise)"
PERFORMER "Electric Light Orchestra"
INDEX 01 11:57:03
TRACK 05 AUDIO
TITLE "Showdown"
PERFORMER "Electric Light Orchestra"
INDEX 01 16:02:08
TRACK 06 AUDIO
TITLE "Daybreaker"
PERFORMER "Electric Light Orchestra"
INDEX 01 20:11:25
TRACK 07 AUDIO
TITLE "Ma-Ma-Ma Belle"
PERFORMER "Electric Light Orchestra"
INDEX 01 24:02:51
TRACK 08 AUDIO
TITLE "Dreaming Of 4000"
PERFORMER "Electric Light Orchestra"
INDEX 01 27:59:23
TRACK 09 AUDIO
TITLE "In The Hall Of The Mountain King (E. Grieg arr. by ELO)"
PERFORMER "Electric Light Orchestra"
INDEX 01 33:03:50
TRACK 10 AUDIO
TITLE "Auntie (Ma-Ma-Ma Belle - Take 1)"
PERFORMER "Electric Light Orchestra"
INDEX 00 39:36:45
INDEX 01 39:41:26
TRACK 11 AUDIO
TITLE "Auntie (Ma-Ma-Ma Belle - Take 2)"
PERFORMER "Electric Light Orchestra"
INDEX 01 41:00:41
TRACK 12 AUDIO
TITLE "Mambo (Dreaming Of 4000 - Alternate Mix)"
PERFORMER "Electric Light Orchestra"
INDEX 00 45:02:67
INDEX 01 45:05:49
TRACK 13 AUDIO
TITLE "Everyone's Born To Die"
PERFORMER "Electric Light Orchestra"
INDEX 00 50:08:41
INDEX 01 50:10:61
TRACK 14 AUDIO
TITLE "Interludes"
PERFORMER "Electric Light Orchestra"
INDEX 00 53:51:35
INDEX 01 53:54:16
[свернуть]

Лог проверки качества

AUDIOCHECKER v2.0 beta (build 457) - by Dester -
~~~~~~~~~~~~~~~~~~~~~~~~~~~~~~~~~~
-=== НЕ РЕДАКТИРУЙТЕ ЭТОТ ФАЙЛ! ===-

Путь: ...\1973(2006) - On The Third Day [82796942712]

1 -=- Electric Light Orchestra - On The Third Day.flac -=- CDDA (100%)

191319108
[свернуть]

Спектр частот

[свернуть]

Скачать Electric Light Orchestra - On the Third Day



password: sergych
[свернуть]
My opinion of release: 10/10
__________________
TAIFUN.Wings of Soul

Вверх
Пользователь сказал cпасибо:
VladislavUdalov (26.09.2017)
Похожие темы
Тема Автор Раздел Ответов Последнее сообщение
Альбом Electric Light Orchestra - Zoom Afula Progressive Rock 1 20.10.2013 14:56
Альбом Electric Light Orchestra - ELO 2 Afula Progressive Rock 1 19.10.2013 20:57
Альбом Electric Light Orchestra - No Answer Afula Progressive Rock 1 19.10.2013 20:07


Метки
1973 , electric light orchestra , elo , on the third day , progressive rock , symphonic rock

Опции темы

Ваши права в разделе
Вы не можете создавать новые темы
Вы не можете отвечать в темах
Вы не можете прикреплять вложения
Вы не можете редактировать свои сообщения

Быстрый переход



Текущее время: 01:18. Часовой пояс GMT +3.
Powered by vBulletin® Version 3.8.10
Copyright ©2000 - 2018, vBulletin Solutions, Inc. Перевод: zCarot
© 2008 - 2018 Taifun With Song
Яндекс.Метрика