TAIFUN With Song
Навигация
Вернуться   TAIFUN With Song > Music (обменник) > Другие направления музыки > Jazz и Blues
Расширенный поиск
Jazz и Blues Гибкая ритмика, импровизационное начало, гармонии и мелодии - все это Jazz. Blues - жизнеутверждающая музыка, рожденная из душевной боли

А знаете ли Вы, что...
Какой отработанный медицинский материал использовался советскими изготовителями кустарных пластинок?
«В СССР для изготовления кустарных пластинок, на которые записывалась нелегальная музыка, широко использовали старые рентгеновские снимки. Их называли «пластинки на костях» или «пластинки на рёбрах». Этот материал обходился бесплатно, медперсонал даже благодарил тех, кто помогал разгружать архивы.»
 
Опции темы

  #1
Старый 01.10.2012, 18:28
sergych
Координатор
Досье
 
Аватар для sergych
Релиз Oscar Peterson Trio - The Sound of the Trio


1961(2000) - Oscar Peterson Trio - The Sound of the Trio




Исполнитель/Artist: Oscar Peterson Trio
Альбом/Album: The Sound of the Trio
Год/Year: 1961
Ремастеринг/Remaster: 2000
Жанр/Genre: Jazz, Swing
Страна/Country: Германия
Рекорд-лейбл/Record label: Verve
Номер в каталоге/Catalogue #: 543 321-2
Формат/Format: Free Lossless Audio Codec (*.flac)
Качество/Quality: Lossless
Тип рипа/RIP Type: image+.cue
Продолжительность/Length: 01:16:56
Источник/Source: Собственный рип
Размер/Size: 545.2 MB

Сканы в комплекте

Треклист

01. Tricrotism (org. Tracitism) [0:11:10.58]
02. On Green Dolphin Street [0:08:55.40]
03. Thags' Dance [0:05:43.55]
04. Ill Wind [0:05:36.37]
05. Kadota's Blues [0:11:15.10]
06. Scrapple From The Apple [0:09:29.45]
07. Jim [0:09:13.58]
08. Band Call [0:07:47.22]
09. The Night We Called It A Day [0:05:08.50]
10. Billy Boy [0:02:35.05]
[свернуть]

youtube.com

[свернуть]

Исполнители/Performers

Oscar Peterson - piano
Ray Brown - double bass
Ed Thigpen - drums
[свернуть]

EAC лог

Exact Audio Copy V1.3 from 2. September 2016

EAC extraction logfile from 21. June 2018, 18:45

Oscar Peterson / The Sound of the Trio

Used drive : ATAPI iHAS124 D Adapter: 0 ID: 2

Read mode : Secure
Utilize accurate stream : Yes
Defeat audio cache : Yes
Make use of C2 pointers : No

Read offset correction : 6
Overread into Lead-In and Lead-Out : No
Fill up missing offset samples with silence : Yes
Delete leading and trailing silent blocks : No
Null samples used in CRC calculations : Yes
Used interface : Installed external ASPI interface

Used output format : User Defined Encoder
Selected bitrate : 1024 kBit/s
Quality : High
Add ID3 tag : No
Command line compressor : C:\Program Files (x86)\Exact Audio Copy\Flac\flac.exe
Additional command line options : -6 -V -T "ARTIST=%artist%" -T "TITLE=%title%" -T "ALBUM=%albumtitle%" -T "DATE=%year%" -T "TRACKNUMBER=%tracknr%" -T "GENRE=%genre%" -T "COMMENT=%comment%" -T "BAND=%albuminterpret%" -T "ALBUMARTIST=%albuminterpret%" -T "COMPOSER=%composer%" %haslyrics%--tag-from-file=LYRICS="%lyricsfile%"%haslyrics% -T "DISCNUMBER=%cdnumber%" -T "TOTALDISCS=%totalcds%" -T "TOTALTRACKS=%numtracks%" %hascover%--picture="%coverfile%"%hascover% %source% -o %dest%


TOC of the extracted CD

Track | Start | Length | Start sector | End sector
---------------------------------------------------------
1 | 0:00.00 | 11:10.58 | 0 | 50307
2 | 11:10.58 | 8:55.40 | 50308 | 90472
3 | 20:06.23 | 5:43.55 | 90473 | 116252
4 | 25:50.03 | 5:36.37 | 116253 | 141489
5 | 31:26.40 | 11:15.10 | 141490 | 192124
6 | 42:41.50 | 9:29.45 | 192125 | 234844
7 | 52:11.20 | 9:13.58 | 234845 | 276377
8 | 61:25.03 | 7:47.22 | 276378 | 311424
9 | 69:12.25 | 5:08.50 | 311425 | 334574
10 | 74:21.00 | 2:35.05 | 334575 | 346204


Range status and errors

Selected range

Filename C:\mm\Oscar Peterson\1961(2000) - The Sound Of The Trio [543 321-2]\Oscar Peterson - The Sound of the Trio.wav

Peak level 100.0 %
Extraction speed 2.1 X
Range quality 100.0 %
Test CRC 8021F783
Copy CRC 8021F783
Copy OK

No errors occurred

End of status report

---- CUETools DB Plugin V2.1.6

[CTDB TOCID: x3LHfvOAh0koR5lp0UnKKf71fw8-] found
Submit result: x3LHfvOAh0koR5lp0UnKKf71fw8- has been confirmed
Track | CTDB Status
1 | (14/14) Accurately ripped
2 | (14/14) Accurately ripped
3 | (14/14) Accurately ripped
4 | (14/14) Accurately ripped
5 | (14/14) Accurately ripped
6 | (14/14) Accurately ripped
7 | (14/14) Accurately ripped
8 | (14/14) Accurately ripped
9 | (14/14) Accurately ripped
10 | (14/14) Accurately ripped
[свернуть]

Файл CUE

REM GENRE Jazz
REM DATE 1961
REM DISCID 9312080A
REM COMMENT "ExactAudioCopy v1.3"
PERFORMER "Oscar Peterson"
TITLE "The Sound of the Trio"
REM COMPOSER ""
FILE "Oscar Peterson - The Sound of the Trio.flac" WAVE
TRACK 01 AUDIO
TITLE "Tricrotism (org. Tracitism)"
PERFORMER "Oscar Peterson"
REM COMPOSER ""
INDEX 01 00:00:00
TRACK 02 AUDIO
TITLE "On Green Dolphin Street"
PERFORMER "Oscar Peterson"
REM COMPOSER ""
INDEX 00 11:07:23
INDEX 01 11:10:58
TRACK 03 AUDIO
TITLE "Thags' Dance"
PERFORMER "Oscar Peterson"
REM COMPOSER ""
INDEX 00 20:02:50
INDEX 01 20:06:23
TRACK 04 AUDIO
TITLE "Ill Wind"
PERFORMER "Oscar Peterson"
REM COMPOSER ""
INDEX 00 25:46:18
INDEX 01 25:50:03
TRACK 05 AUDIO
TITLE "Kadota's Blues"
PERFORMER "Oscar Peterson"
REM COMPOSER ""
INDEX 00 31:23:07
INDEX 01 31:26:40
TRACK 06 AUDIO
TITLE "Scrapple From The Apple"
PERFORMER "Oscar Peterson"
REM COMPOSER ""
INDEX 00 42:32:50
INDEX 01 42:41:50
TRACK 07 AUDIO
TITLE "Jim"
PERFORMER "Oscar Peterson"
REM COMPOSER ""
INDEX 00 52:00:47
INDEX 01 52:11:20
TRACK 08 AUDIO
TITLE "Band Call"
PERFORMER "Oscar Peterson"
REM COMPOSER ""
INDEX 00 61:14:35
INDEX 01 61:25:03
TRACK 09 AUDIO
TITLE "The Night We Called It A Day"
PERFORMER "Oscar Peterson"
REM COMPOSER ""
INDEX 00 69:00:32
INDEX 01 69:12:25
TRACK 10 AUDIO
TITLE "Billy Boy"
PERFORMER "Oscar Peterson"
REM COMPOSER ""
INDEX 00 74:17:35
INDEX 01 74:21:00
[свернуть]

Лог проверки качества

AUDIOCHECKER v2.0 beta (build 457) - by Dester -
~~~~~~~~~~~~~~~~~~~~~~~~~~~~~~~~~~
-=== НЕ РЕДАКТИРУЙТЕ ЭТОТ ФАЙЛ! ===-

Путь: ...\1961(2000) - The Sound Of The Trio [543 321-2]

1 -=- Oscar Peterson - The Sound of the Trio.flac -=- CDDA (100%)

238408580
[свернуть]

Спектр частот

[свернуть]

Скачать Oscar Peterson Trio - The Sound of the Trio



password: sergych
[свернуть]

Контрольная сумма (хеш-сумма) архива

MD5: 04f98e5b7dc2293d1a78fafbe325c32b
[свернуть]
My opinion of release: 10/10
__________________
TAIFUN.Wings of Soul


Последний раз редактировалось sergych, 22.06.2018 в 04:58. Причина: замена по-трекового рипа образом
Вверх
  #2
Старый 22.06.2018, 05:00
sergych
Координатор
Досье
 
Аватар для sergych
По умолчанию Re: Oscar Peterson Trio - The Sound of the Trio

заменил по-трековый рип образом, добавил недостающий скан
__________________
TAIFUN.Wings of Soul

Вверх
Похожие темы
Тема Автор Раздел Ответов Последнее сообщение
Альбом Oscar Peterson Trio - We Get Requests sergych Jazz и Blues 2 15.05.2013 20:59
Альбом Oscar Peterson Trio - Night Train sergych Jazz и Blues 1 09.09.2012 18:32
Альбом Oscar Peterson Trio - Another Day sergych Jazz и Blues 0 03.12.2011 10:54
Live Oscar Peterson Trio - The Trio. Live From Chicago sergych Jazz и Blues 0 02.03.2011 19:49


Метки
1961 , 2000 , jazz , oscar peterson , oscar peterson trio , peterson , swing , the sound of the trio

Опции темы

Ваши права в разделе
Вы не можете создавать новые темы
Вы не можете отвечать в темах
Вы не можете прикреплять вложения
Вы не можете редактировать свои сообщения

Быстрый переход



Текущее время: 08:48. Часовой пояс GMT +3.
Powered by vBulletin® Version 3.8.10
Copyright ©2000 - 2018, vBulletin Solutions, Inc. Перевод: zCarot
© 2008 - 2018 Taifun With Song
Яндекс.Метрика