TAIFUN With Song
Навигация
Jazz и Blues Гибкая ритмика, импровизационное начало, гармонии и мелодии - все это Jazz. Blues - жизнеутверждающая музыка, рожденная из душевной боли

А знаете ли Вы, что...
Кому откусил голову Оззи Осборн?
«Оззи Осборн на одном из концертов в 1982 году на самом деле откусил голову летучей мыши! Одна поклонница бросила её на сцену, и Оззи подумал, что это очередная резиновая игрушка. Но когда он укусил её за шею, оказалось, что летучая мышь живая, после чего артист был доставлен в больницу с подозрением на бешенство.»
 
Опции темы

  #1
Старый 03.12.2011, 10:54
sergych
Координатор
Досье
 
Аватар для sergych
Релиз Oscar Peterson Trio - Another Day


1972 - Oscar Peterson Trio - Another Day




Исполнитель/Artist: The Oscar Peterson Trio
Альбом/Album: Another Day [Remastered Anniversary Edition]
Год/Year: 1972
Ремастеринг/Remaster: 2005
Жанр/Genre: Jazz
Рекорд-лейбл/Record label: Universal
Дата записи/Recording date: 1970-11
Формат/Format: MPEG Layer-3 (*.mp3)
Качество/Quality: CBR 320 kbps
Тип рипа/RIP Type: tracks
Продолжительность/Length: 00:39:19
Источник/Source: Собственный рип
Размер/Size: 113.2 MB

Сканы в комплекте

Треклист

01 - Blues For Martha
02 - Greensleeves
03 - I'm Old Fashioned
04 - All The Things You Are
05 - Too Close For Comfort
06 - The JAMFs Are Coming
07 - It Never Entered My Mind
08 - Carolina Shout
[свернуть]

youtube.com

[свернуть]

Исполнители/Performers

Oscar Peterson - piano
Jiri "George" Mraz - bass
Ray Prince - drums
[свернуть]

Скачать Oscar Peterson Trio - Another Day



passwords: sergych
[свернуть]
Формат/Format: Free Lossless Audio Codec (*.flac)
Качество/Quality: Lossless
Тип рипа/RIP Type: tracks+.cue
Источник/Source: Собственный рип
Размер/Size: 259.1 MB

Сканы в комплекте

EAC лог

Exact Audio Copy V1.0 beta 2 from 29. April 2011

EAC extraction logfile from 29. November 2011, 2:02

Oscar Peterson / Another Day

Used drive: ASUS DVD-E616A2 Adapter: 1 ID: 1

Read mode : Secure
Utilize accurate stream : Yes
Defeat audio cache : Yes
Make use of C2 pointers : Yes

Read offset correction : 6
Overread into Lead-In and Lead-Out : No
Fill up missing offset samples with silence : Yes
Delete leading and trailing silent blocks : No
Null samples used in CRC calculations : Yes
Used interface : Installed external ASPI interface
Gap handling : Appended to previous track

Used output format : User Defined Encoder
Selected bitrate : 768 kBit/s
Quality : High
Add ID3 tag : Yes

TOC of the extracted CD

Track | Start | Length | Start sector | End sector
---------------------------------------------------
1 | 0:00.00 | 5:11.02 | 0 | 23326
2 | 5:11.02 | 4:27.62 | 23327 | 43413
3 | 9:38.64 | 4:08.52 | 43414 | 62065
4 | 13:47.41 | 6:13.50 | 62066 | 90090
5 | 20:01.16 | 4:19.72 | 90091 | 109587
6 | 24:21.13 | 5:40.00 | 109588 | 135087
7 | 30:01.13 | 6:01.01 | 135088 | 162163
8 | 36:02.14 | 3:17.04 | 162164 | 176942

Track 1
Filename M:\Oscar Peterson\1972(2005) - Another Day [Remastered Anniversary Edition]\01 - Blues For Martha.wav

Pre-gap length 0:00:02.00
Peak level 96.9 %
Extraction speed 2.1 X
Track quality 99.9 %
Copy CRC 630CE898
Accurately ripped (confidence 15) [6071684D] (AR v1)
Copy OK

Track 2
Filename M:\Oscar Peterson\1972(2005) - Another Day [Remastered Anniversary Edition]\02 - Greensleeves.wav

Pre-gap length 0:00:03.20
Peak level 96.6 %
Extraction speed 2.7 X
Track quality 100.0 %
Copy CRC E2119AD5
Accurately ripped (confidence 15) [36D3E4E3] (AR v1)
Copy OK

Track 3
Filename M:\Oscar Peterson\1972(2005) - Another Day [Remastered Anniversary Edition]\03 - I'm Old Fashioned.wav

Pre-gap length 0:00:03.08
Peak level 96.9 %
Extraction speed 2.9 X
Track quality 100.0 %
Copy CRC 81F74FAC
Accurately ripped (confidence 15) [A2143AA3] (AR v1)
Copy OK

Track 4
Filename M:\Oscar Peterson\1972(2005) - Another Day [Remastered Anniversary Edition]\04 - All The Things You Are.wav

Pre-gap length 0:00:03.11
Peak level 96.9 %
Extraction speed 3.3 X
Track quality 100.0 %
Copy CRC 054395A9
Accurately ripped (confidence 15) [413115CF] (AR v1)
Copy OK

Track 5
Filename M:\Oscar Peterson\1972(2005) - Another Day [Remastered Anniversary Edition]\05 - Too Close For Comfort.wav

Pre-gap length 0:00:03.23
Peak level 96.9 %
Extraction speed 3.4 X
Track quality 100.0 %
Copy CRC F9F550DF
Accurately ripped (confidence 15) [07A09A21] (AR v1)
Copy OK

Track 6
Filename M:\Oscar Peterson\1972(2005) - Another Day [Remastered Anniversary Edition]\06 - The JAMFs Are Coming.wav

Pre-gap length 0:00:03.33
Peak level 96.8 %
Extraction speed 3.3 X
Track quality 99.9 %
Copy CRC 97141E4C
Accurately ripped (confidence 15) [A35BEFBF] (AR v1)
Copy OK

Track 7
Filename M:\Oscar Peterson\1972(2005) - Another Day [Remastered Anniversary Edition]\07 - It Never Entered My Mind.wav

Pre-gap length 0:00:03.68
Peak level 96.8 %
Extraction speed 4.1 X
Track quality 100.0 %
Copy CRC 7F6FBE91
Accurately ripped (confidence 15) [A441A7A1] (AR v1)
Copy OK

Track 8
Filename M:\Oscar Peterson\1972(2005) - Another Day [Remastered Anniversary Edition]\08 - Carolina Shout.wav

Pre-gap length 0:00:03.63
Peak level 97.7 %
Extraction speed 3.8 X
Track quality 100.0 %
Copy CRC CD354A1C
Accurately ripped (confidence 15) [8CD72420] (AR v1)
Copy OK

All tracks accurately ripped

No errors occurred

End of status report
[свернуть]

Файл CUE

REM GENRE Jazz
REM DATE 1970
REM DISCID 56093708
REM COMMENT "ExactAudioCopy v1.0b2"
PERFORMER "Oscar Peterson"
TITLE "Another Day"
FILE "01 - Blues For Martha.wav" WAVE
TRACK 01 AUDIO
TITLE "Blues For Martha"
PERFORMER "Oscar Peterson"
INDEX 01 00:00:00
TRACK 02 AUDIO
TITLE "Greensleeves"
PERFORMER "Oscar Peterson"
INDEX 00 05:07:57
FILE "02 - Greensleeves.wav" WAVE
INDEX 01 00:00:00
TRACK 03 AUDIO
TITLE "I'm Old Fashioned"
PERFORMER "Oscar Peterson"
INDEX 00 04:24:54
FILE "03 - I'm Old Fashioned.wav" WAVE
INDEX 01 00:00:00
TRACK 04 AUDIO
TITLE "All The Things You Are"
PERFORMER "Oscar Peterson"
INDEX 00 04:05:41
FILE "04 - All The Things You Are.wav" WAVE
INDEX 01 00:00:00
TRACK 05 AUDIO
TITLE "Too Close For Comfort"
PERFORMER "Oscar Peterson"
INDEX 00 06:10:27
FILE "05 - Too Close For Comfort.wav" WAVE
INDEX 01 00:00:00
TRACK 06 AUDIO
TITLE "The JAMFs Are Coming"
PERFORMER "Oscar Peterson"
INDEX 00 04:16:39
FILE "06 - The JAMFs Are Coming.wav" WAVE
INDEX 01 00:00:00
TRACK 07 AUDIO
TITLE "It Never Entered My Mind"
PERFORMER "Oscar Peterson"
INDEX 00 05:36:07
FILE "07 - It Never Entered My Mind.wav" WAVE
INDEX 01 00:00:00
TRACK 08 AUDIO
TITLE "Carolina Shout"
PERFORMER "Oscar Peterson"
INDEX 00 05:57:13
FILE "08 - Carolina Shout.wav" WAVE
INDEX 01 00:00:00
[свернуть]

Спектр частот

[свернуть]

Скачать Oscar Peterson Trio - Another Day



passwords: sergych
[свернуть]
My opinion of release: 10/10

Release info RInfo

Remastered Anniversary Edition for Oscar Peterson's 80th birthday
__________________
TAIFUN.Wings of Soul


Последний раз редактировалось sergych, 03.12.2011 в 11:04. Причина: и flac в руки :)
Вверх
Похожие темы
Тема Автор Раздел Ответов Последнее сообщение
Альбом Oscar Peterson Trio - We Get Requests sergych Jazz и Blues 2 15.05.2013 20:59
Альбом Oscar Peterson Trio - Night Train sergych Jazz и Blues 1 09.09.2012 18:32
Альбом Oscar Peterson Trio With Milt Jackson – Very Tall sergych Jazz и Blues 0 03.03.2011 17:30
Live Oscar Peterson Trio - The Trio. Live From Chicago sergych Jazz и Blues 0 02.03.2011 19:49
Live Oscar Peterson Trio - Live At CBC Studios sergych Jazz и Blues 0 02.03.2011 19:04


Метки
1972 , another day [remastered anniversary edition] , jazz , oscar peterson , the oscar peterson trio

Опции темы

Ваши права в разделе
Вы не можете создавать новые темы
Вы не можете отвечать в темах
Вы не можете прикреплять вложения
Вы не можете редактировать свои сообщения

Быстрый переход



Текущее время: 08:54. Часовой пояс GMT +3.
Powered by vBulletin® Version 3.8.10
Copyright ©2000 - 2018, vBulletin Solutions, Inc. Перевод: zCarot
© 2008 - 2018 Taifun With Song
Яндекс.Метрика