TAIFUN With Song
Навигация
Jazz и Blues Гибкая ритмика, импровизационное начало, гармонии и мелодии - все это Jazz. Blues - жизнеутверждающая музыка, рожденная из душевной боли

А знаете ли Вы, что...
Для прослушивания какого альбома нужно иметь четыре аудиосистемы?
«Восьмой студийный альбом альтернативной группы The Flaming Lips под названием Zaireeka был выпущен на 4 CD. Особенность альбома в том, что каждая композиция разделена на четыре составляющих, и для того чтобы прослушать песни в полной версии, нужно включить одновременно все диски на четырёх разных аудиосистемах. Слушатели также могут экспериментировать, проигрывая не все диски сразу, а в любой комбинации из двух или трёх штук.»
 
Опции темы

  #1
Старый 24.11.2011, 19:02
sergych
Координатор
Досье
 
Аватар для sergych
Релиз Oscar Peterson Trio - We Get Requests


1965 - Oscar Peterson Trio - We Get Requests




Исполнитель/Artist: The Oscar Peterson Trio
Альбом/Album: We Get Requests
Год/Year: 1965
Ремастеринг/Remaster: 1997
Жанр/Genre: Jazz
Рекорд-лейбл/Record label: PolyGram Records
Формат/Format: MPEG Layer-3 (*.mp3)
Качество/Quality: CBR 320 kbps
Тип рипа/RIP Type: tracks
Продолжительность/Length: 00:40:16
Источник/Source: Собственный рип
Размер/Size: 101 MB

Сканы в комплекте

Треклист

01 - Corcovado (Quiet Nights of Quiet Stars)
02 - The Days of Wine and Roses
03 - My One and Only Love
04 - People
05 - Have You Met Miss Jones?
06 - You Look Good To Me
07 - The Girl From Ipanema
08 - D & E
09 - Time and Again
10 - Goodbye, J.D.
[свернуть]

Исполнители/Performers

Oscar Peterson - piano
Ray Brown - bass
Ed Thigpen - drums
[свернуть]

Скачать Oscar Peterson Trio - We Get Requests



password: sergych
[свернуть]
My opinion of release: 10/10
__________________
TAIFUN.Wings of Soul


Последний раз редактировалось sergych, 31.08.2013 в 19:14. Причина: перезаливка
Вверх
2 пользователя(ей) сказали cпасибо:
aheron (31.01.2012), TAIFUN (25.11.2011)
  #2
Старый 17.02.2012, 20:20
sergych
Координатор
Досье
 
Аватар для sergych
Релиз Re: Oscar Peterson Trio - We Get Requests


1965 - Oscar Peterson Trio - We Get Requests




Исполнитель/Artist: Oscar Peterson Trio
Альбом/Album: We Get Requests
Год/Year: 1965
Ремастеринг/Remaster: 1997
Жанр/Genre: Jazz
Страна/Country: Germany
Рекорд-лейбл/Record label: Verve / PolyGram Records
Формат/Format: Free Lossless Audio Codec (*.flac)
Качество/Quality: Lossless
Тип рипа/RIP Type: tracks+.cue
Продолжительность/Length: 00:39:45
Источник/Source: Собственный рип
Размер/Size: 285.4 MB

Сканы в комплекте

Треклист

01 - Corcovado (Quiet Nights of Quiet Stars)
02 - The Days of Wine and Roses
03 - My One and Only Love
04 - People
05 - Have You Met Miss Jones?
06 - You Look Good To Me
07 - The Girl From Ipanema
08 - D & E
09 - Time and Again
10 - Goodbye, J.D.
[свернуть]

youtube.com

[свернуть]

Исполнители/Performers

Oscar Peterson - piano
Ray Brown - bass
Ed Thigpen - drums
[свернуть]

EAC лог

Exact Audio Copy V1.0 beta 3 from 29. August 2011

EAC extraction logfile from 16. February 2012, 16:49

The Oscar Peterson Trio / We Get Requests

Used drive : Optiarc DVD RW AD-5170A Adapter: 0 ID: 1

Read mode : Secure
Utilize accurate stream : Yes
Defeat audio cache : No
Make use of C2 pointers : Yes

Read offset correction : 48
Overread into Lead-In and Lead-Out : No
Fill up missing offset samples with silence : Yes
Delete leading and trailing silent blocks : No
Null samples used in CRC calculations : Yes
Used interface : Native Win32 interface for Win NT & 2000
Gap handling : Appended to previous track

Used output format : User Defined Encoder
Selected bitrate : 768 kBit/s
Quality : High
Add ID3 tag : Yes
Command line compressor : C:\MMProgram\Exact Audio Copy\FLAC\FLAC.EXE
Additional command line options : -6 -V -T "ARTIST=%artist%" -T "TITLE=%title%" -T "ALBUM=%albumtitle%" -T "DATE=%year%" -T "TRACKNUMBER=%tracknr%" -T "GENRE=%genre%" -T "COMMENT=%comment%" -T "BAND=%albuminterpret%" -T "ALBUMARTIST=%albuminterpret%" -T "COMPOSER=%composer%" %haslyrics%--tag-from-file=LYRICS="%lyricsfile%"%haslyrics% -T "DISCNUMBER=%cdnumber%" -T "TOTALDISCS=%totalcds%" -T "TOTALTRACKS=%numtracks%" %hascover%--picture="%coverfile%"%hascover% %source% -o %dest%


TOC of the extracted CD

Track | Start | Length | Start sector | End sector
---------------------------------------------------------
1 | 0:00.00 | 2:52.30 | 0 | 12929
2 | 2:52.30 | 2:43.12 | 12930 | 25166
3 | 5:35.42 | 5:11.30 | 25167 | 48521
4 | 10:46.72 | 3:33.30 | 48522 | 64526
5 | 14:20.27 | 4:13.63 | 64527 | 83564
6 | 18:34.15 | 4:52.05 | 83565 | 105469
7 | 23:26.20 | 3:55.35 | 105470 | 123129
8 | 27:21.55 | 5:13.67 | 123130 | 146671
9 | 32:35.47 | 4:40.23 | 146672 | 167694
10 | 37:15.70 | 2:56.60 | 167695 | 180954


Track 1

Filename C:\mm\Oscar Peterson\1\01 - Corcovado (Quiet Nights of Quiet Stars).wav

Pre-gap length 0:00:02.00

Peak level 100.0 %
Extraction speed 5.8 X
Track quality 99.8 %
Test CRC 15025209
Copy CRC 15025209
Accurately ripped (confidence 3) [3C47205F] (AR v2)
Copy OK

Track 2

Filename C:\mm\Oscar Peterson\1\02 - The Days of Wine and Roses.wav

Pre-gap length 0:00:03.25

Peak level 100.0 %
Extraction speed 5.8 X
Track quality 99.8 %
Test CRC 134EAB7C
Copy CRC 134EAB7C
Accurately ripped (confidence 3) [FB988E6A] (AR v2)
Copy OK

Track 3

Filename C:\mm\Oscar Peterson\1\03 - My One and Only Love.wav

Pre-gap length 0:00:03.02

Peak level 80.7 %
Extraction speed 7.0 X
Track quality 100.0 %
Test CRC A3DBEE55
Copy CRC A3DBEE55
Accurately ripped (confidence 3) [DF96A2FE] (AR v2)
Copy OK

Track 4

Filename C:\mm\Oscar Peterson\1\04 - People.wav

Pre-gap length 0:00:03.17

Peak level 100.0 %
Extraction speed 6.9 X
Track quality 100.0 %
Test CRC 0F7BF4A7
Copy CRC 0F7BF4A7
Accurately ripped (confidence 3) [D08F6770] (AR v2)
Copy OK

Track 5

Filename C:\mm\Oscar Peterson\1\05 - Have You Met Miss Jones.wav

Pre-gap length 0:00:02.55

Peak level 100.0 %
Extraction speed 6.9 X
Track quality 100.0 %
Test CRC 8BB41E8A
Copy CRC 8BB41E8A
Accurately ripped (confidence 3) [A8DB1898] (AR v2)
Copy OK

Track 6

Filename C:\mm\Oscar Peterson\1\06 - You Look Good to Me.wav

Pre-gap length 0:00:02.73

Peak level 100.0 %
Extraction speed 7.0 X
Track quality 100.0 %
Test CRC 79E6F510
Copy CRC 79E6F510
Accurately ripped (confidence 3) [484F8377] (AR v2)
Copy OK

Track 7

Filename C:\mm\Oscar Peterson\1\07 - The Girl From Ipanema.wav

Pre-gap length 0:00:02.63

Peak level 100.0 %
Extraction speed 6.9 X
Track quality 100.0 %
Test CRC BEDA4E88
Copy CRC BEDA4E88
Accurately ripped (confidence 3) [582B039F] (AR v2)
Copy OK

Track 8

Filename C:\mm\Oscar Peterson\1\08 - D & E.wav

Pre-gap length 0:00:03.48

Peak level 100.0 %
Extraction speed 6.5 X
Track quality 99.9 %
Test CRC 1F395D8D
Copy CRC 1F395D8D
Accurately ripped (confidence 3) [968559EE] (AR v2)
Copy OK

Track 9

Filename C:\mm\Oscar Peterson\1\09 - Time and Again.wav

Pre-gap length 0:00:02.70

Peak level 64.4 %
Extraction speed 7.0 X
Track quality 100.0 %
Test CRC 8A3B4E91
Copy CRC 8A3B4E91
Accurately ripped (confidence 3) [4D8B8FF6] (AR v2)
Copy OK

Track 10

Filename C:\mm\Oscar Peterson\1\10 - Goodbye, J.D..wav

Pre-gap length 0:00:02.03

Peak level 100.0 %
Extraction speed 6.8 X
Track quality 100.0 %
Test CRC 46F33BED
Copy CRC 46F33BED
Accurately ripped (confidence 3) [B38C3316] (AR v2)
Copy OK


All tracks accurately ripped

No errors occurred

End of status report

---- CUETools DB Plugin V2.1.3

[CTDB TOCID: q1vUYwrlHqHvzRtNNUzlpgamoSo-] found, Submit result: already submitted
[67428da0] (33/36) No match
[21f24353] (03/36) Accurately ripped


==== Log checksum 66EBF78B375E6444BF8430BAA38C609D43E41541563D325DBB1C992F3F72D4B6 ====
[свернуть]

Файл CUE

REM GENRE Jazz
REM DATE 1997
REM DISCID 85096C0A
REM COMMENT "ExactAudioCopy v1.0b3"
PERFORMER "The Oscar Peterson Trio"
TITLE "We Get Requests"
FILE "01 - Corcovado (Quiet Nights of Quiet Stars).wav" WAVE
TRACK 01 AUDIO
TITLE "Corcovado (Quiet Nights of Quiet Stars)"
PERFORMER "The Oscar Peterson Trio"
INDEX 01 00:00:00
TRACK 02 AUDIO
TITLE "The Days of Wine and Roses"
PERFORMER "The Oscar Peterson Trio"
INDEX 00 02:49:05
FILE "02 - The Days of Wine and Roses.wav" WAVE
INDEX 01 00:00:00
TRACK 03 AUDIO
TITLE "My One and Only Love"
PERFORMER "The Oscar Peterson Trio"
INDEX 00 02:40:10
FILE "03 - My One and Only Love.wav" WAVE
INDEX 01 00:00:00
TRACK 04 AUDIO
TITLE "People"
PERFORMER "The Oscar Peterson Trio"
INDEX 00 05:08:13
FILE "04 - People.wav" WAVE
INDEX 01 00:00:00
TRACK 05 AUDIO
TITLE "Have You Met Miss Jones?"
PERFORMER "The Oscar Peterson Trio"
INDEX 00 03:30:50
FILE "05 - Have You Met Miss Jones.wav" WAVE
INDEX 01 00:00:00
TRACK 06 AUDIO
TITLE "You Look Good to Me"
PERFORMER "The Oscar Peterson Trio"
INDEX 00 04:10:65
FILE "06 - You Look Good to Me.wav" WAVE
INDEX 01 00:00:00
TRACK 07 AUDIO
TITLE "The Girl From Ipanema"
PERFORMER "The Oscar Peterson Trio"
INDEX 00 04:49:17
FILE "07 - The Girl From Ipanema.wav" WAVE
INDEX 01 00:00:00
TRACK 08 AUDIO
TITLE "D & E"
PERFORMER "The Oscar Peterson Trio"
INDEX 00 03:51:62
FILE "08 - D & E.wav" WAVE
INDEX 01 00:00:00
TRACK 09 AUDIO
TITLE "Time and Again"
PERFORMER "The Oscar Peterson Trio"
INDEX 00 05:10:72
FILE "09 - Time and Again.wav" WAVE
INDEX 01 00:00:00
TRACK 10 AUDIO
TITLE "Goodbye, J.D."
PERFORMER "The Oscar Peterson Trio"
INDEX 00 04:38:20
FILE "10 - Goodbye, J.D..wav" WAVE
INDEX 01 00:00:00
[свернуть]

Лог проверки качества

AUDIOCHECKER v2.0 beta (build 457) - by Dester -
~~~~~~~~~~~~~~~~~~~~~~~~~~~~~~~~~~
-=== НЕ РЕДАКТИРУЙТЕ ЭТОТ ФАЙЛ! ===-

Путь: ...\1

01 -=- 01 - Corcovado (Quiet Nights of Quiet Stars).flac -=- CDDA (42%)
02 -=- 02 - The Days of Wine and Roses.flac -=- CDDA (100%)
03 -=- 03 - My One and Only Love.flac -=- CDDA (94%)
04 -=- 04 - People.flac -=- CDDA (100%)
05 -=- 05 - Have You Met Miss Jones.flac -=- CDDA (100%)
06 -=- 06 - You Look Good to Me.flac -=- CDDA (100%)
07 -=- 07 - The Girl From Ipanema.flac -=- CDDA (99%)
08 -=- 08 - D & E.flac -=- CDDA (100%)
09 -=- 09 - Time and Again.flac -=- CDDA (62%)
10 -=- 10 - Goodbye, J.D..flac -=- CDDA (100%)

Сводка 89,70% CDDA

157819092
[свернуть]

Скачать Oscar Peterson Trio - We Get Requests



password: sergych
[свернуть]
My opinion of release: 10/10
__________________
TAIFUN.Wings of Soul

Вверх
2 пользователя(ей) сказали cпасибо:
aheron (15.05.2013), TAIFUN (17.02.2012)
  #3
Старый 15.05.2013, 20:59
aheron
Релизёр
Досье
 
Аватар для aheron
По умолчанию Re: Oscar Peterson Trio - We Get Requests


The Oscar Peterson Trio - We Get Requests (1964) [K2HD Mastering 2009]




Исполнитель/Artist: The Oscar Peterson Trio
Альбом/Album: We Get Requests
Год/Year: 2009
Жанр/Genre: Piano Jazz, Bop
Рекорд-лейбл/Record label: LIM Records. Made in USA.
Каталог/Catalog #: LIM K2HD 032
Формат/Format: Free Lossless Audio Codec (*.flac)
Качество/Quality: Lossless
Тип рипа/RIP Type: image+.cue


Продолжительность/Length: 00:40:18
Источник/Source: Из интернета
Размер/Size: 267 MB

Сканы в комплекте

Tracklist:

01.You Look Good to Me [4:53]
02.Time and Again [4:41]
03.My One and Only Love [5:12]
04.Corcovado (Quiet Night of Quiet Stars) [2:53]
05.The Day of Wine and Roses [2:44]
06.People [3:33]
07.Have You met Miss Jones [4:13]
08.The Girl from Ipanema [3:56]
09.D. & E. [5:13]
10.Goodbye J.D. [2:59]
--------------------------
Total time [00:40:18]

Release Notes:
- 24-Bit/100kHz K2 HD Mastering Process
- Mastered on a 99.9999% Silver Disc

The benefits of K2 HD Mastering:
- Delivers what musicians originally intended
- Ambience of Analogue Sound
- Master-Tape Quality Sound
- Richer Sound Field
- Higher Resolution
- Lower Distortion
[свернуть]

EAC лог

Exact Audio Copy V0.99 prebeta 5 from 4. May 2009

EAC extraction logfile from 3. February 2010, 15:40

Oscar Peterson Trio, The / We Get Requests [K2HD Mastering]

Used drive : ASUS CRW-5232AS Adapter: 0 ID: 0

Read mode : Secure
Utilize accurate stream : Yes
Defeat audio cache : Yes
Make use of C2 pointers : No

Read offset correction : 6
Overread into Lead-In and Lead-Out : No
Fill up missing offset samples with silence : Yes
Delete leading and trailing silent blocks : No
Null samples used in CRC calculations : Yes
Used interface : Native Win32 interface for Win NT & 2000

Used output format : User Defined Encoder
Selected bitrate : 1024 kBit/s
Quality : High
Add ID3 tag : No
Command line compressor : C:\Program Files\Exact Audio Copy\FLAC\FLAC.EXE
Additional command line options : -6 -V -T "ARTIST=%a" -T "TITLE=%t" -T "ALBUM=%g" -T "DATE=%y" -T "TRACKNUMBER=%n" -T "GENRE=%m" -T "COMMENT=%e" %s -o %d


TOC of the extracted CD

Track | Start | Length | Start sector | End sector
---------------------------------------------------------
1 | 0:00.00 | 4:52.66 | 0 | 21965
2 | 4:52.66 | 4:41.16 | 21966 | 43056
3 | 9:34.07 | 5:11.50 | 43057 | 66431
4 | 14:45.57 | 2:53.33 | 66432 | 79439
5 | 17:39.15 | 2:43.73 | 79440 | 91737
6 | 20:23.13 | 3:33.04 | 91738 | 107716
7 | 23:56.17 | 4:12.63 | 107717 | 126679
8 | 28:09.05 | 3:56.23 | 126680 | 144402
9 | 32:05.28 | 5:13.37 | 144403 | 167914
10 | 37:18.65 | 2:59.01 | 167915 | 181340


Range status and errors

Selected range

Filename G:\Oscar Peterson Trio, The - We Get Requests [K2HD Mastering].wav

Peak level 100.0 %
Range quality 100.0 %
Test CRC 8C7DCB63
Copy CRC 8C7DCB63
Copy OK

No errors occurred


AccurateRip summary

Track 1 accurately ripped (confidence 16) [D064DBFB]
Track 2 accurately ripped (confidence 16) [1E9A1899]
Track 3 accurately ripped (confidence 16) [7F567926]
Track 4 accurately ripped (confidence 16) [12293B82]
Track 5 accurately ripped (confidence 16) [DA7A4F1F]
Track 6 accurately ripped (confidence 16) [F7B03E7D]
Track 7 accurately ripped (confidence 16) [40C4BB44]
Track 8 accurately ripped (confidence 16) [4E93F84B]
Track 9 accurately ripped (confidence 16) [CD2D1553]
Track 10 accurately ripped (confidence 16) [DC5CCEA5]

All tracks accurately ripped

End of status report
[свернуть]

Лог проверки качества

-----------------------

DON'T MODIFY THIS FILE

-----------------------

PERFORMER: auCDtect Task Manager, ver. 1.5.1RC6 build 1.5.1.7
Copyright (c) 2008-2010 y-soft. All rights reserved


ANALYZER: auCDtect: CD records authenticity detector, version 0.8.2
Copyright (c) 2004 Oleg Berngardt. All rights reserved.
Copyright (c) 2004 Alexander Djourik. All rights reserved.


FILE: The Oscar Peterson Trio - We Get Requests [K2HD Mastering].flac
Size: 256464028 Hash: 4151DAC36678F751FB4643C64037D29D Accuracy: -m0
Conclusion: CDDA 100%
Signature: 22CBDF73927902CA8C9CF54CD5564B60ED940D1F
[свернуть]

Спектр частот

[свернуть]

Скачать Oscar Peterson Trio - We Get Requests

Яндекс.Диск
[свернуть]

Вверх
Пользователь сказал cпасибо:
sergych (15.05.2013)
Похожие темы
Тема Автор Раздел Ответов Последнее сообщение
Альбом Oscar Peterson Trio - Night Train sergych Jazz и Blues 1 09.09.2012 18:32
Альбом Oscar Peterson Trio With Milt Jackson – Very Tall sergych Jazz и Blues 0 03.03.2011 17:30
Live Oscar Peterson Trio - The Trio. Live From Chicago sergych Jazz и Blues 0 02.03.2011 19:49
Live Oscar Peterson Trio - Live At CBC Studios sergych Jazz и Blues 0 02.03.2011 19:04


Метки
1965 , jazz , oscar peterson , the oscar peterson trio , we get requests

Опции темы

Ваши права в разделе
Вы не можете создавать новые темы
Вы не можете отвечать в темах
Вы не можете прикреплять вложения
Вы не можете редактировать свои сообщения

Быстрый переход



Текущее время: 08:25. Часовой пояс GMT +3.
Powered by vBulletin® Version 3.8.10
Copyright ©2000 - 2018, vBulletin Solutions, Inc. Перевод: zCarot
© 2008 - 2018 Taifun With Song
Яндекс.Метрика