TAIFUN With Song
Навигация
Вернуться   TAIFUN With Song > Music (обменник) > Rock > Progressive Rock
Расширенный поиск
Progressive Rock Единственной универсальной характеристикой прогрессивного рока является усложнение музыкальной формы. Это проявляется в удлиннении и усложнении музыкальных пьес, тяготении к циклическим формам академической музыки; расширении репертуара используемых тембров, усложнении метра и ритма, использовании нетрадиционных для рока мелодических и гармонических решений; поэзии, уходящей от тем развлекательной музыки и тяготеющей к философским «вечным темам», фантастической и фентезийной тематике; переплетении с классической и современной академической музыкой, джазом.

А знаете ли Вы, что...
Какая песня, часто приписываемая Элвису Пресли, никогда им не записывалась?
«Песню «Only You» часто приписывают Элвису Пресли, хотя на самом деле наиболее известными её исполнителями является группа «The Platters». Элвис пел «Only You» на некоторых концертах, но не существует ни одной аудио- или видеозаписи этой композиции в его исполнении.»
 
Опции темы

  #1
Старый 08.05.2011, 18:10
Afula
Друг форума
Досье
 
Аватар для Afula
Релиз Electric Light Orchestra - ELO 2

1973 - ELO 2


Исполнитель: Electric Light Orchestra
Альбом: ELO 2
Год выхода: 1973
Жанр: Rock
Формат: Flac
Качество: Lossless I 44.1 Khz I Joint Stereo
Время звучания: 74 min 39 sec
Общий размер: 455,68 MB

Tracklist

Tracklist
01. In Old England Town (Boogie No. 2)
02. Momma
03. Roll Over Beethoven
04. From the Sun to the World (Boogie #1)
05. Kuiama
06. Showdown (Bonus)
07. In Old England Town (Instrumental) (Bonus)
08. Baby I Apologise (Bonus)
09. Auntie (Ma-Ma-Ma Belle Take 1) (Previously Unreleased)
10. Auntie (Ma-Ma-Ma Belle Take 2) (Previously Unreleased)
11. Mambo (Dreaming of 4000 Take 1) (Previously Unreleased)
12. Everyone's Born to Die (Previously Unreleased)
13. Roll Over Beethoven (Take 1) (Previously Unreleased)
[свернуть]

Скачать


[свернуть]
__________________

Вверх
2 пользователя(ей) сказали cпасибо:
sergych (19.10.2013), VladislavUdalov (13.04.2018)
  #2
Старый 19.10.2013, 20:57
sergych
Координатор
Досье
 
Аватар для sergych
Релиз Re: Electric Light Orchestra - ELO 2


1973(1990) - Electric Light Orchestra - Electric Light Orchestra II




Исполнитель/Artist: Electric Light Orchestra
Альбом/Album: Electric Light Orchestra II
Год/Year: 1973
Ремастеринг/Remaster: 1990
Жанр/Genre: Progressive rock, rock
Страна/Country: Соединённые Штаты
Рекорд-лейбл/Record label: Epic / Jet
Номер в каталоге/Catalogue #: ZK 35533 / 07464355332
Формат/Format: Free Lossless Audio Codec (*.flac)
Качество/Quality: Lossless
Тип рипа/RIP Type: image+.cue
Продолжительность/Length: 00:41:53
Источник/Source: Из интернета
Размер/Size: 246.1 MB

Сканы в комплекте

Треклист

01 - In Old England Town (Boogie #2)
02 - Mama
03 - Roll Over Beethoven
04 - From The Sun To The World (Boogie #1)
05 - Kuiama
[свернуть]

Исполнители/Performers

Jeff Lynne – Vocals, Guitar, Moog Synthesizer
Bev Bevan – Drums, Percussion
Richard Tandy – Keyboards, Moog Synthesizer
Mike de Albuquerque – Bass, backing vocals
Wilfred Gibson – Violin
Mike Edwards – Cello
Colin Walker – Cello

Additional personnel
Roy Wood – Bass, Cello on ELO 2 tracks 1 and 4
[свернуть]

EAC лог

Exact Audio Copy V0.99 prebeta 5 from 4. May 2009

EAC extraction logfile from 12. January 2010, 13:30

Electric Light Orchestra / Electric Light Orchestra II

Used drive : HL-DT-STDVDRAM_GSA-T20N Adapter: 0 ID: 0

Read mode : Secure
Utilize accurate stream : Yes
Defeat audio cache : Yes
Make use of C2 pointers : No

Read offset correction : 667
Overread into Lead-In and Lead-Out : No
Fill up missing offset samples with silence : Yes
Delete leading and trailing silent blocks : No
Null samples used in CRC calculations : Yes
Used interface : Native Win32 interface for Win NT & 2000

Used output format : User Defined Encoder
Selected bitrate : 768 kBit/s
Quality : High
Add ID3 tag : No
Command line compressor : C:\Program Files\Exact Audio Copy\Flac\flac.exe
Additional command line options : -6 -V -T "ARTIST=%a" -T "TITLE=%t" -T "ALBUM=%g" -T "DATE=%y" -T "TRACKNUMBER=%n" -T "GENRE=%m" -T "COMMENT=%e" %s -o %d


TOC of the extracted CD

Track | Start | Length | Start sector | End sector
---------------------------------------------------------
1 | 0:00.00 | 6:56.10 | 0 | 31209
2 | 6:56.10 | 7:03.22 | 31210 | 62956
3 | 13:59.32 | 8:11.00 | 62957 | 99781
4 | 22:10.32 | 8:22.65 | 99782 | 137496
5 | 30:33.22 | 11:19.65 | 137497 | 188486


Range status and errors

Selected range

Filename D:\Music\Electric Light Orchestra - Electric Light Orchestra II.wav

Peak level 97.7 %
Range quality 100.0 %
Test CRC 626934DC
Copy CRC 626934DC
Copy OK

No errors occurred


AccurateRip summary

Track 1 accurately ripped (confidence 5) [320724E3]
Track 2 accurately ripped (confidence 5) [75DC97E6]
Track 3 accurately ripped (confidence 4) [F7415346]
Track 4 accurately ripped (confidence 5) [6225A3F0]
Track 5 accurately ripped (confidence 4) [9647F143]

All tracks accurately ripped

End of status report
[свернуть]

Файл CUE

REM GENRE Rock
REM DATE 1973
REM DISCID 3609D105
REM COMMENT "ExactAudioCopy v0.99pb5"
PERFORMER "Electric Light Orchestra"
TITLE "Electric Light Orchestra II"
FILE "Electric Light Orchestra - Electric Light Orchestra II.flac" WAVE
TRACK 01 AUDIO
TITLE "In Old England Town (Boogie #2)"
PERFORMER "Electric Light Orchestra"
INDEX 01 00:00:00
TRACK 02 AUDIO
TITLE "Mama"
PERFORMER "Electric Light Orchestra"
INDEX 00 06:55:57
INDEX 01 06:56:10
TRACK 03 AUDIO
TITLE "Roll Over Beethoven"
PERFORMER "Electric Light Orchestra"
INDEX 01 13:59:32
TRACK 04 AUDIO
TITLE "From The Sun To The World (Boogie #1)"
PERFORMER "Electric Light Orchestra"
INDEX 00 22:08:60
INDEX 01 22:10:32
TRACK 05 AUDIO
TITLE "Kuiama"
PERFORMER "Electric Light Orchestra"
INDEX 00 30:32:02
INDEX 01 30:33:22
[свернуть]

Лог проверки качества

AUDIOCHECKER v2.0 beta (build 457) - by Dester -
~~~~~~~~~~~~~~~~~~~~~~~~~~~~~~~~~~
-=== НЕ РЕДАКТИРУЙТЕ ЭТОТ ФАЙЛ! ===-

Путь: ...\1973 - Electric Light Orchestra II (ZK 35533)

1 -=- Electric Light Orchestra - Electric Light Orchestra II.flac -=- CDDA (99%)

116683588
[свернуть]

Скачать Electric Light Orchestra - Electric Light Orchestra II



password: sergych
[свернуть]
My opinion of release: 9/10
__________________
TAIFUN.Wings of Soul

Вверх
Пользователь сказал cпасибо:
VladislavUdalov (13.04.2018)
Похожие темы
Тема Автор Раздел Ответов Последнее сообщение
Альбом Electric Light Orchestra - No Answer Afula Progressive Rock 1 19.10.2013 20:07
Альбом Electric Light Orchestra - Eldorado - A Symphony By The E.L.O. + Xanadu TAIFUN Progressive Rock 0 15.02.2011 18:56


Метки
electric light orchestra , elo , progressive rock , symphonic rock

Опции темы

Ваши права в разделе
Вы не можете создавать новые темы
Вы не можете отвечать в темах
Вы не можете прикреплять вложения
Вы не можете редактировать свои сообщения

Быстрый переход



Текущее время: 23:31. Часовой пояс GMT +3.
Powered by vBulletin® Version 3.8.10
Copyright ©2000 - 2018, vBulletin Solutions, Inc. Перевод: zCarot
© 2008 - 2018 Taifun With Song
Яндекс.Метрика