TAIFUN With Song
Навигация
Вернуться   TAIFUN With Song > Music (обменник) > Rock > Progressive Rock
Расширенный поиск
Progressive Rock Единственной универсальной характеристикой прогрессивного рока является усложнение музыкальной формы. Это проявляется в удлиннении и усложнении музыкальных пьес, тяготении к циклическим формам академической музыки; расширении репертуара используемых тембров, усложнении метра и ритма, использовании нетрадиционных для рока мелодических и гармонических решений; поэзии, уходящей от тем развлекательной музыки и тяготеющей к философским «вечным темам», фантастической и фентезийной тематике; переплетении с классической и современной академической музыкой, джазом.

А знаете ли Вы, что...
Сколько музыкантов и композиторов произошло из семьи Бахов?
«Иоганн Себастьян Бах был не единственным талантом в своей семье. Бахи дали миру более 50 известных музыкантов и несколько замечательных композиторов. Сам Иоганн Себастьян был признан наиболее выдающимся из них намного позже своей смерти. В последние же годы жизни Иоганна Себастьяна его больше почитали за воспитание Бахов-младших, в первую очередь Карла Филиппа Эммануила, музыка которого была известнее.»
 
Опции темы

  #1
Старый 15.02.2011, 18:56
TAIFUN
Admin
Досье
 
Аватар для TAIFUN
По умолчанию Electric Light Orchestra - Eldorado - A Symphony By The E.L.O. + Xanadu

Eldorado - A Symphony By The E.L.O. (1974) + Xanadu (1980)




Исполнитель/Artist: Electric Light Orchestra
Альбом/Album: Eldorado - A Symphony By The E.L.O. + Xanadu
Год/Year: 1974/1980
Жанр/Genre: Rock, Space Rock, Progressive Rock
Формат/Format: FLAC
Качество/Quality: lossless
Тип рипа/RIP Type: image + .cue
Размер/Size: 467 MB
Продолжительность/Length: 01:19:21

Сканы в комплекте

Треклист


Eldorado
01. Eldorado Overture
02. Can`t Get It Out Of
03. Boy Blue
04. Laredo Tornado
05. Poorboy (The Greenwood)
06. Mister Kindom
07. Nobody`s Child
08. Illusions In G Major
09. Eldorado
10. Eldorado - Finale

Xanadu
01. Magic
02. Suddenly
03. Dancin`
04. Suspend In Time
05. Whenever You`re Away From Me
06. I`m Alive
07. The Fall
08. Don`t Walk Away
09. All Over The World
10. Xanadu
[свернуть]

EAC лог

Exact Audio Copy V1.0 beta 1 from 15. November 2010

EAC extraction logfile from 15. February 2011, 17:13

Electric Light Orchestra / Eldorado - A Symphony By The E.L.O. + Xanadu

Used drive : HL-DT-STDVDRAM GSA-T10N Adapter: 3 ID: 1

Read mode : Secure
Utilize accurate stream : Yes
Defeat audio cache : Yes
Make use of C2 pointers : No

Read offset correction : 667
Overread into Lead-In and Lead-Out : No
Fill up missing offset samples with silence : Yes
Delete leading and trailing silent blocks : No
Null samples used in CRC calculations : Yes
Used interface : Installed external ASPI interface

Used output format : Internal WAV Routines
Sample format : 44.100 Hz; 16 Bit; Stereo


TOC of the extracted CD

Track | Start | Length | Start sector | End sector
---------------------------------------------------------
1 | 0:00.00 | 2:09.32 | 0 | 9706
2 | 2:09.32 | 4:22.13 | 9707 | 29369
3 | 6:31.45 | 5:19.25 | 29370 | 53319
4 | 11:50.70 | 5:30.03 | 53320 | 78072
5 | 17:20.73 | 2:55.04 | 78073 | 91201
6 | 20:16.02 | 5:30.05 | 91202 | 115956
7 | 25:46.07 | 3:56.58 | 115957 | 133714
8 | 29:42.65 | 2:37.38 | 133715 | 145527
9 | 32:20.28 | 5:18.02 | 145528 | 169379
10 | 37:38.30 | 1:28.72 | 169380 | 176051
11 | 39:07.27 | 3:56.52 | 176052 | 193803
12 | 43:04.04 | 3:57.01 | 193804 | 211579
13 | 47:01.05 | 5:03.40 | 211580 | 234344
14 | 52:04.45 | 3:47.41 | 234345 | 251410
15 | 55:52.11 | 4:17.00 | 251411 | 270685
16 | 60:09.11 | 3:40.29 | 270686 | 287214
17 | 63:49.40 | 3:32.74 | 287215 | 303188
18 | 67:22.39 | 4:30.66 | 303189 | 323504
19 | 71:53.30 | 4:01.02 | 323505 | 341581
20 | 75:54.32 | 3:27.35 | 341582 | 357141


Range status and errors

Selected range

Filename C:\Users\Сергей\Desktop\E.L.O.-E-ASbtE-X-1974-1980\Electric Light Orchestra - Eldorado - A Symphony By The E.L.O. + Xanadu.wav

Peak level 97.2 %
Extraction speed 0.1 X
Range quality 100.0 %
Copy CRC 157DFF5F
Copy OK

No errors occurred


AccurateRip summary

Track 1 accurately ripped (confidence 2) [B2616FB8]
Track 2 accurately ripped (confidence 2) [867746A6]
Track 3 accurately ripped (confidence 2) [819983B4]
Track 4 accurately ripped (confidence 2) [CA6F95E8]
Track 5 accurately ripped (confidence 2) [2E0FDFA9]
Track 6 accurately ripped (confidence 2) [B462536F]
Track 7 accurately ripped (confidence 2) [139AC7F6]
Track 8 accurately ripped (confidence 2) [46CD4C10]
Track 9 accurately ripped (confidence 2) [2E043A9E]
Track 10 accurately ripped (confidence 2) [831C823C]
Track 11 accurately ripped (confidence 3) [87041B09]
Track 12 accurately ripped (confidence 3) [7EB74B66]
Track 13 accurately ripped (confidence 3) [68F9BD56]
Track 14 accurately ripped (confidence 3) [4DDD231D]
Track 15 accurately ripped (confidence 3) [3FA1E877]
Track 16 accurately ripped (confidence 2) [F1872059]
Track 17 accurately ripped (confidence 3) [9ECBD073]
Track 18 accurately ripped (confidence 3) [06DE85A6]
Track 19 accurately ripped (confidence 3) [23243A67]
Track 20 accurately ripped (confidence 2) [8BA36A93]

All tracks accurately ripped

End of status report
[свернуть]

CDDA Tau Analyzer

[свернуть]

Спектр частот

[свернуть]

Frequency

[свернуть]

Скачать Electric Light Orchestra - Eldorado - A Symphony By The E.L.O. + Xanadu

narod.ru

[свернуть]


My opinion of release: 7/10
__________________
I love the music
FAQ по форуму
Правила форума
Жизнь человека - это не самое главное в его жизни...


Последний раз редактировалось TAIFUN, 20.02.2011 в 19:41.
Вверх
2 пользователя(ей) сказали cпасибо:
sergych (16.02.2011), VladislavUdalov (13.04.2018)
Похожие темы
Тема Автор Раздел Ответов Последнее сообщение
Within Temptation & The Metropole Orchestra - Black Symphony PUPOKIN Gothic Metal 0 23.09.2008 12:39
Альбом London Symphony Orchestra - Standing Stone sergych Instrumental 0 10.08.2008 05:37


Метки
1974 , 1980 , electric light orchestra , elo , pop art , progressive rock , rock , symphonic rock

Опции темы

Ваши права в разделе
Вы не можете создавать новые темы
Вы не можете отвечать в темах
Вы не можете прикреплять вложения
Вы не можете редактировать свои сообщения

Быстрый переход



Текущее время: 01:19. Часовой пояс GMT +3.
Powered by vBulletin® Version 3.8.10
Copyright ©2000 - 2018, vBulletin Solutions, Inc. Перевод: zCarot
© 2008 - 2018 Taifun With Song
Яндекс.Метрика