TAIFUN With Song
Навигация
Jazz и Blues Гибкая ритмика, импровизационное начало, гармонии и мелодии - все это Jazz. Blues - жизнеутверждающая музыка, рожденная из душевной боли

А знаете ли Вы, что...
Кто такой Сироб Вокищнеберг, упомянутый в описании альбома «Яблокитай» группы «Наутилус Помпилиус»?
«В описании альбома «Яблокитай» группы «Наутилус Помпилиус» указан некий профессор Сироб Вокищнеберг, играющий на реверсах. Этот таинственный человек никто иной, как Борис Гребенщиков, записанный наоборот. Таким образом удачно обыграли его работу с реверсами — прокручиванием музыкальных фрагментов в обратном направлении.»
 
Опции темы

  #1
Старый 17.12.2017, 08:09
sergych
Координатор
Досье
 
Аватар для sergych
Релиз Tom Waits - Blue Valentine


1978 - Tom Waits - Blue Valentine




Исполнитель/Artist: Tom Waits
Альбом/Album: Blue Valentine
Год/Year: 1978
Жанр/Genre: Blues rock, Blues, Jazz
Страна/Country: Россия
Рекорд-лейбл/Record label: Elektra / фирма грамзаписи "Никитин"
Номер в каталоге/Catalogue #: 4607173157409
Формат/Format: Free Lossless Audio Codec (*.flac)
Качество/Quality: Lossless
Тип рипа/RIP Type: image+.cue
Продолжительность/Length: 00:49:38
Источник/Source: Собственный рип
Размер/Size: 274 MB

Сканы в комплекте

Треклист

01. Somewhere (From 'West Side Story') [0:03:53.20]
02. Red Shoes By The Drugstore [0:03:14.55]
03. Christmas Card From A Hooker in Minneapolis [0:04:33.15]
04. Romeo Is Bleeding [0:04:52.42]
05. $29.00 [0:08:15.38]
06. Wrong Side Of The Road [0:05:14.17]
07. Whistlin' Past The Graveyard [0:03:17.60]
08. Kentucky Avenue [0:04:49.45]
09. A Sweet Little Bullet From A Pretty Blue Gun [0:05:36.55]
10. Blue Valentines [0:05:50.02]
[свернуть]

youtube.com

[свернуть]

Исполнители/Performers

Tom Waits - vocals, electric guitar, piano
Ray Crawford, Roland Bautista, Alvin "Shine" Robinson - electric guitar
Scott Edwards, Jim Hughart, Byron Miller - bass
Da Willie Gonga (George Duke), Harold Battiste - piano
Charles Kynard - organ
Herbert Hardesty, Frank Vicari - tenor saxophone
Rick Lawson, Earl Palmer, Chip White - drums
Bobbye Hall Porter - congas on ("Romeo Is Bleeding")
Bob Alcivar - orchestra
[свернуть]

EAC лог

Exact Audio Copy V1.3 from 2. September 2016

EAC extraction logfile from 15. December 2017, 21:18

Tom Waits / Blue Valentine

Used drive : ATAPI iHAS124 D Adapter: 0 ID: 2

Read mode : Secure
Utilize accurate stream : Yes
Defeat audio cache : Yes
Make use of C2 pointers : No

Read offset correction : 6
Overread into Lead-In and Lead-Out : No
Fill up missing offset samples with silence : Yes
Delete leading and trailing silent blocks : No
Null samples used in CRC calculations : Yes
Used interface : Installed external ASPI interface

Used output format : User Defined Encoder
Selected bitrate : 1024 kBit/s
Quality : High
Add ID3 tag : No
Command line compressor : C:\Program Files (x86)\Exact Audio Copy\Flac\flac.exe
Additional command line options : -6 -V -T "ARTIST=%artist%" -T "TITLE=%title%" -T "ALBUM=%albumtitle%" -T "DATE=%year%" -T "TRACKNUMBER=%tracknr%" -T "GENRE=%genre%" -T "COMMENT=%comment%" -T "BAND=%albuminterpret%" -T "ALBUMARTIST=%albuminterpret%" -T "COMPOSER=%composer%" %haslyrics%--tag-from-file=LYRICS="%lyricsfile%"%haslyrics% -T "DISCNUMBER=%cdnumber%" -T "TOTALDISCS=%totalcds%" -T "TOTALTRACKS=%numtracks%" %hascover%--picture="%coverfile%"%hascover% %source% -o %dest%


TOC of the extracted CD

Track | Start | Length | Start sector | End sector
---------------------------------------------------------
1 | 0:00.00 | 3:53.20 | 0 | 17494
2 | 3:53.20 | 3:14.55 | 17495 | 32099
3 | 7:08.00 | 4:33.15 | 32100 | 52589
4 | 11:41.15 | 4:52.42 | 52590 | 74531
5 | 16:33.57 | 8:15.38 | 74532 | 111694
6 | 24:49.20 | 5:14.17 | 111695 | 135261
7 | 30:03.37 | 3:17.60 | 135262 | 150096
8 | 33:21.22 | 4:49.45 | 150097 | 171816
9 | 38:10.67 | 5:36.55 | 171817 | 197071
10 | 43:47.47 | 5:50.02 | 197072 | 223323


Range status and errors

Selected range

Filename C:\mm\Tom Waits\1978 - Blue Valentine [4607173157409]\Tom Waits - Blue Valentine.wav

Peak level 97.7 %
Extraction speed 1.8 X
Range quality 100.0 %
Test CRC F6964E9A
Copy CRC F6964E9A
Copy OK

No errors occurred


AccurateRip summary

Track 1 accurately ripped (confidence 1) [9D749853] (AR v2)
Track 2 accurately ripped (confidence 1) [896616B3] (AR v2)
Track 3 accurately ripped (confidence 1) [CF1F9043] (AR v2)
Track 4 accurately ripped (confidence 1) [7CC79840] (AR v2)
Track 5 accurately ripped (confidence 1) [ED242B30] (AR v2)
Track 6 accurately ripped (confidence 1) [79587C41] (AR v2)
Track 7 accurately ripped (confidence 1) [FC285E58] (AR v2)
Track 8 accurately ripped (confidence 1) [88679DA8] (AR v2)
Track 9 accurately ripped (confidence 1) [FAC69A23] (AR v2)
Track 10 accurately ripped (confidence 1) [9DD6D567] (AR v2)

All tracks accurately ripped

End of status report

---- CUETools DB Plugin V2.1.6

[CTDB TOCID: jar5gCaKLyLP.qpshBmVmSQ8OO8-] found
Submit result: already submitted
Track | CTDB Status
1 | (5/5) Accurately ripped
2 | (5/5) Accurately ripped
3 | (3/5) Accurately ripped
4 | (3/5) Accurately ripped
5 | (5/5) Accurately ripped
6 | (5/5) Accurately ripped
7 | (5/5) Accurately ripped
8 | (5/5) Accurately ripped
9 | (5/5) Accurately ripped
10 | (5/5) Accurately ripped
[свернуть]

Файл CUE

REM GENRE Blues
REM DATE 1978
REM DISCID 780BA10A
REM COMMENT "ExactAudioCopy v1.3"
PERFORMER "Tom Waits"
TITLE "Blue Valentine"
REM COMPOSER ""
FILE "Tom Waits - Blue Valentine.flac" WAVE
TRACK 01 AUDIO
TITLE "Somewhere (From 'West Side Story')"
PERFORMER "Tom Waits"
REM COMPOSER ""
INDEX 01 00:00:00
TRACK 02 AUDIO
TITLE "Red Shoes By The Drugstore"
PERFORMER "Tom Waits"
REM COMPOSER ""
INDEX 01 03:53:20
TRACK 03 AUDIO
TITLE "Christmas Card From A Hooker in Minneapolis"
PERFORMER "Tom Waits"
REM COMPOSER ""
INDEX 01 07:08:00
TRACK 04 AUDIO
TITLE "Romeo Is Bleeding"
PERFORMER "Tom Waits"
REM COMPOSER ""
INDEX 01 11:41:15
TRACK 05 AUDIO
TITLE "$29.00"
PERFORMER "Tom Waits"
REM COMPOSER ""
INDEX 01 16:33:57
TRACK 06 AUDIO
TITLE "Wrong Side Of The Road"
PERFORMER "Tom Waits"
REM COMPOSER ""
INDEX 01 24:49:20
TRACK 07 AUDIO
TITLE "Whistlin' Past The Graveyard"
PERFORMER "Tom Waits"
REM COMPOSER ""
INDEX 01 30:03:37
TRACK 08 AUDIO
TITLE "Kentucky Avenue"
PERFORMER "Tom Waits"
REM COMPOSER ""
INDEX 01 33:21:22
TRACK 09 AUDIO
TITLE "A Sweet Little Bullet From A Pretty Blue Gun"
PERFORMER "Tom Waits"
REM COMPOSER ""
INDEX 01 38:10:67
TRACK 10 AUDIO
TITLE "Blue Valentines"
PERFORMER "Tom Waits"
REM COMPOSER ""
INDEX 01 43:47:47
[свернуть]

Лог проверки качества

AUDIOCHECKER v2.0 beta (build 457) - by Dester -
~~~~~~~~~~~~~~~~~~~~~~~~~~~~~~~~~~
-=== НЕ РЕДАКТИРУЙТЕ ЭТОТ ФАЙЛ! ===-

Путь: ...\1978 - Blue Valentine [4607173157409]

1 -=- Tom Waits - Blue Valentine.flac -=- CDDA (99%)

255438052
[свернуть]

Спектр частот

[свернуть]

Скачать Tom Waits - Blue Valentine



password: sergych
[свернуть]

Контрольная сумма (хеш-сумма) архива

MD5: 6379099ec409c3be5e017b6dc8de2b90
[свернуть]
My opinion of release: 10/10
__________________
TAIFUN.Wings of Soul

Вверх
2 пользователя(ей) сказали cпасибо:
johnsilver (17.12.2017), swint68 (17.12.2017)
Похожие темы
Тема Автор Раздел Ответов Последнее сообщение
Сборник Tom Waits - We're All Mad Here: A Conversation With Tom Waits sergych Experimental Rock 0 13.02.2014 17:09
Ноутбук Valentine PUPOKIN Компьютеры и интернет 0 29.08.2010 17:11
Саундтрек Valentine's Day PUPOKIN Саундтреки 0 07.02.2010 10:04
Сборник Tom Waits & Friends - The Ghost Of Tom Waits sergych Jazz и Blues 0 24.01.2009 00:19
Bullet For My Valentine PUPOKIN Альбомы и концерты 0 19.10.2008 14:54


Метки
1978 , blue valentine , blues , blues rock , jazz , tom waits

Опции темы

Ваши права в разделе
Вы не можете создавать новые темы
Вы не можете отвечать в темах
Вы не можете прикреплять вложения
Вы не можете редактировать свои сообщения

Быстрый переход



Текущее время: 05:58. Часовой пояс GMT +3.
Powered by vBulletin® Version 3.8.10
Copyright ©2000 - 2018, vBulletin Solutions, Inc. Перевод: zCarot
© 2008 - 2018 Taifun With Song
Яндекс.Метрика