TAIFUN With Song
Навигация
Вернуться   TAIFUN With Song > Music (обменник) > Club & Electronic Music > Dance
Расширенный поиск
Dance Выросши из диско, Dance Pop в основе своей содержал ухающий клубный бит, обрамлявший простые, запоминающиеся мелодии, что было ближе к полноценной песне, чем просто к танцевальной музыке. Dance Pop в первую очередь является творением продюсеров, которые пишут песни, создают трэки и находят подходящую певицу, которая бы все это спела. Эти исполнительницы становятся звездами, но чаще всего их работу определяет продюсер. Конечно, среди крупных имен есть исключения - такие певицы, как Madonna и Janet Jackson сами определяли свое звучание и концепцию своих альбомов, но в основном в музыке Dance Pop главной является ее внешняя сторона, а не суть

А знаете ли Вы, что...
Какой композитор писал музыку, будучи глухим?
«На момент написания своей знаменитой девятой симфонии Бетховен был абсолютно глух.»
 
Опции темы

  #1
Старый 06.11.2015, 20:24
sergych
Координатор
Досье
 
Аватар для sergych
Релиз Donna Summer - This Time I Know It's For Real


1993 - Donna Summer - This Time I Know It's For Real




Исполнитель/Artist: Donna Summer
Альбом/Album: This Time I Know It's For Real
Год/Year: 1993
Жанр/Genre: Pop, dance, disco
Страна/Country: Германия
Рекорд-лейбл/Record label: WEA International
Номер в каталоге/Catalogue #: 9548-31823-2
Формат/Format: Free Lossless Audio Codec (*.flac)
Качество/Quality: Lossless
Тип рипа/RIP Type: image+.cue
Продолжительность/Length: 00:57:21
Источник/Source: Собственный рип
Размер/Size: 383.9 MB

Сканы в комплекте

Треклист

01. This Time I Know It's For Real [0:03:35.45]
02. Cats Without Claws [0:04:25.05]
03. Say A Little Prayer [0:04:08.62]
04. Maybe It's Over [0:04:44.68]
05. Love Is Just A Breath Away [0:03:57.10]
06. The Woman In Me [0:03:57.50]
07. All Systems Go [0:04:13.00]
08. Running For Cover [0:03:49.52]
09. Who Do You Think You're Foolin' [0:04:19.33]
10. There Goes My Baby [0:04:08.50]
11. Supernatural Love [0:03:35.50]
12. Suzanna [0:04:31.65]
13. When Love Takes You Over [0:04:14.35]
14. Cold Love [0:03:38.50]
[свернуть]

youtube.com

[свернуть]

EAC лог

Exact Audio Copy V1.0 beta 3 from 29. August 2011

EAC extraction logfile from 6. November 2015, 11:21

Donna Summer / This Time I Know It's For Real

Used drive : Optiarc DVD RW AD-7260S Adapter: 5 ID: 0

Read mode : Secure
Utilize accurate stream : Yes
Defeat audio cache : Yes
Make use of C2 pointers : No

Read offset correction : 48
Overread into Lead-In and Lead-Out : No
Fill up missing offset samples with silence : Yes
Delete leading and trailing silent blocks : No
Null samples used in CRC calculations : Yes
Used interface : Installed external ASPI interface

Used output format : User Defined Encoder
Selected bitrate : 1024 kBit/s
Quality : High
Add ID3 tag : No
Command line compressor : C:\MMProgram\Exact Audio Copy\FLAC\FLAC.EXE
Additional command line options : -6 -V -T "ARTIST=%artist%" -T "TITLE=%title%" -T "ALBUM=%albumtitle%" -T "DATE=%year%" -T "TRACKNUMBER=%tracknr%" -T "GENRE=%genre%" -T "COMMENT=%comment%" -T "BAND=%albuminterpret%" -T "ALBUMARTIST=%albuminterpret%" -T "COMPOSER=%composer%" %haslyrics%--tag-from-file=LYRICS="%lyricsfile%"%haslyrics% -T "DISCNUMBER=%cdnumber%" -T "TOTALDISCS=%totalcds%" -T "TOTALTRACKS=%numtracks%" %hascover%--picture="%coverfile%"%hascover% %source% -o %dest%


TOC of the extracted CD

Track | Start | Length | Start sector | End sector
---------------------------------------------------------
1 | 0:00.00 | 3:35.45 | 0 | 16169
2 | 3:35.45 | 4:25.05 | 16170 | 36049
3 | 8:00.50 | 4:08.62 | 36050 | 54711
4 | 12:09.37 | 4:44.68 | 54712 | 76079
5 | 16:54.30 | 3:57.10 | 76080 | 93864
6 | 20:51.40 | 3:57.50 | 93865 | 111689
7 | 24:49.15 | 4:13.00 | 111690 | 130664
8 | 29:02.15 | 3:49.52 | 130665 | 147891
9 | 32:51.67 | 4:19.33 | 147892 | 167349
10 | 37:11.25 | 4:08.50 | 167350 | 185999
11 | 41:20.00 | 3:35.50 | 186000 | 202174
12 | 44:55.50 | 4:31.65 | 202175 | 222564
13 | 49:27.40 | 4:14.35 | 222565 | 241649
14 | 53:42.00 | 3:38.50 | 241650 | 258049


Range status and errors

Selected range

Filename G:\Music\Donna Summer\1993 - This Time I Know It's For Real [9548-31823-2]\Donna Summer - This Time I Know It's For Real.wav

Peak level 100.0 %
Extraction speed 4.1 X
Range quality 100.0 %
Test CRC 6FFA3784
Copy CRC 6FFA3784
Copy OK

No errors occurred


AccurateRip summary

Track 1 accurately ripped (confidence 6) [49511855] (AR v2)
Track 2 accurately ripped (confidence 5) [F4F2066E] (AR v2)
Track 3 accurately ripped (confidence 6) [10C3EEEE] (AR v2)
Track 4 accurately ripped (confidence 6) [EDD73F65] (AR v2)
Track 5 accurately ripped (confidence 6) [98A9B517] (AR v2)
Track 6 accurately ripped (confidence 6) [2826ACE8] (AR v2)
Track 7 accurately ripped (confidence 5) [F13955A0] (AR v2)
Track 8 accurately ripped (confidence 6) [D43EAC00] (AR v2)
Track 9 accurately ripped (confidence 6) [1AAE38B4] (AR v2)
Track 10 accurately ripped (confidence 6) [8E8FE96F] (AR v2)
Track 11 accurately ripped (confidence 6) [8B066B6E] (AR v2)
Track 12 accurately ripped (confidence 6) [55E17219] (AR v2)
Track 13 accurately ripped (confidence 6) [AE134A30] (AR v2)
Track 14 accurately ripped (confidence 6) [BA3456B2] (AR v2)

All tracks accurately ripped

End of status report
[свернуть]

Файл CUE

REM GENRE Pop
REM DATE 1993
REM DISCID C20D700E
REM COMMENT "ExactAudioCopy v1.0b3"
PERFORMER "Donna Summer"
TITLE "This Time I Know It's For Real"
FILE "Donna Summer - This Time I Know It's For Real.flac" WAVE
TRACK 01 AUDIO
TITLE "This Time I Know It's For Real"
PERFORMER "Donna Summer"
INDEX 01 00:00:00
TRACK 02 AUDIO
TITLE "Cats Without Claws"
PERFORMER "Donna Summer"
INDEX 00 03:33:70
INDEX 01 03:35:45
TRACK 03 AUDIO
TITLE "Say A Little Prayer"
PERFORMER "Donna Summer"
INDEX 00 07:58:67
INDEX 01 08:00:50
TRACK 04 AUDIO
TITLE "Maybe It's Over"
PERFORMER "Donna Summer"
INDEX 00 12:07:60
INDEX 01 12:09:37
TRACK 05 AUDIO
TITLE "Love Is Just A Breath Away"
PERFORMER "Donna Summer"
INDEX 00 16:52:55
INDEX 01 16:54:30
TRACK 06 AUDIO
TITLE "The Woman In Me"
PERFORMER "Donna Summer"
INDEX 00 20:49:62
INDEX 01 20:51:40
TRACK 07 AUDIO
TITLE "All Systems Go"
PERFORMER "Donna Summer"
INDEX 00 24:47:35
INDEX 01 24:49:15
TRACK 08 AUDIO
TITLE "Running For Cover"
PERFORMER "Donna Summer"
INDEX 00 29:00:32
INDEX 01 29:02:15
TRACK 09 AUDIO
TITLE "Who Do You Think You're Foolin'"
PERFORMER "Donna Summer"
INDEX 00 32:50:12
INDEX 01 32:51:67
TRACK 10 AUDIO
TITLE "There Goes My Baby"
PERFORMER "Donna Summer"
INDEX 00 37:09:50
INDEX 01 37:11:25
TRACK 11 AUDIO
TITLE "Supernatural Love"
PERFORMER "Donna Summer"
INDEX 00 41:18:15
INDEX 01 41:20:00
TRACK 12 AUDIO
TITLE "Suzanna"
PERFORMER "Donna Summer"
INDEX 00 44:53:67
INDEX 01 44:55:50
TRACK 13 AUDIO
TITLE "When Love Takes You Over"
PERFORMER "Donna Summer"
INDEX 00 49:25:62
INDEX 01 49:27:40
TRACK 14 AUDIO
TITLE "Cold Love"
PERFORMER "Donna Summer"
INDEX 00 53:40:15
INDEX 01 53:42:00
[свернуть]

Лог проверки качества

AUDIOCHECKER v2.0 beta (build 457) - by Dester -
~~~~~~~~~~~~~~~~~~~~~~~~~~~~~~~~~~
-=== НЕ РЕДАКТИРУЙТЕ ЭТОТ ФАЙЛ! ===-

Путь: ...\1993 - This Time I Know It's For Real [9548-31823-2]

1 -=- Donna Summer - This Time I Know It's For Real.flac -=- MPEG (95%)

221300820
[свернуть]

Спектр частот

[свернуть]

Скачать Donna Summer - This Time I Know It's For Real



password: sergych
[свернуть]
My opinion of release: 9/10
__________________
TAIFUN.Wings of Soul

Вверх
Пользователь сказал cпасибо:
TAIFUN (08.11.2015)
Похожие темы
Тема Автор Раздел Ответов Последнее сообщение
Альбом Donna Summer - Another Place And Time sergych Disco 1 13.01.2018 01:50
Сборник Donna Summer - The Donna Summer Anthology sergych Disco 11 21.05.2017 21:48
Сборник Donna Summer - The Best Of Donna Summer {20th Century Masters. The Millennium Collection} sergych Disco 0 01.11.2015 15:37
Donna Summer - The Journey: The Very Best of Donna Summer sergych Disco 0 13.07.2008 15:37
Альбом Donna Summer - Once Upon A Time.. sergych Disco 0 03.05.2008 20:56


Метки
1993 , dance , disco , donna summer , pop , this time i know it's for real

Опции темы

Ваши права в разделе
Вы не можете создавать новые темы
Вы не можете отвечать в темах
Вы не можете прикреплять вложения
Вы не можете редактировать свои сообщения

Быстрый переход



Текущее время: 20:20. Часовой пояс GMT +3.
Powered by vBulletin® Version 3.8.10
Copyright ©2000 - 2018, vBulletin Solutions, Inc. Перевод: zCarot
© 2008 - 2017 Taifun With Song
Яндекс.Метрика