TAIFUN With Song
Навигация
Jazz и Blues Гибкая ритмика, импровизационное начало, гармонии и мелодии - все это Jazz. Blues - жизнеутверждающая музыка, рожденная из душевной боли

А знаете ли Вы, что...
Какой русский музыкальный инструмент мы называем цыганским?
«Семиструнную гитару во всём мире называют русской гитарой, а у нас также распространено название цыганская гитара.»
 
Опции темы

  #1
Старый 30.03.2015, 19:15
sergych
Координатор
Досье
 
Аватар для sergych
Релиз John Pizzarelli - Let There Be Love


2000 - John Pizzarelli - Let There Be Love




Исполнитель/Artist: John Pizzarelli
Альбом/Album: Let There Be Love
Год/Year: 2000
Жанр/Genre: Smooth Jazz, Contemporary Jazz, Vocal jazz, swing
Страна/Country: Соединённые Штаты
Рекорд-лейбл/Record label: TELARC
Номер в каталоге/Catalogue #: CD-83518
Формат/Format: Free Lossless Audio Codec (*.flac)
Качество/Quality: Lossless
Тип рипа/RIP Type: image+.cue
Продолжительность/Length: 00:54:05
Источник/Source: Собственный рип
Размер/Size: 307.6 MB

Сканы в комплекте

Треклист

01. Let There Be Love [0:02:43.12]
02. I'm Putting All My Eggs In One Basket [0:03:39.68]
03. These Foolish Things [0:03:58.40]
04. All I Saw Was You [0:02:47.37]
05. Everything I Have Is Yours [0:04:00.10]
06. Stompin' At The Savoy [0:04:19.45]
07. Follow [0:04:33.63]
08. Our Little Secret [0:02:46.52]
09. You'll Never Know [0:03:01.10]
10. I Don't Know Why (I Just Do) [0:03:29.23]
11. Our Love Rolls On [0:03:44.35]
12. Just One More Chance [0:04:00.60]
13. Lucky Charm [0:02:45.10]
14. Da Vinci's Eyes [0:03:19.50]
15. What Is There To Say [0:04:54.27]
[свернуть]

youtube.com

[свернуть]

Исполнители/Performers

John Pizzarelli – guitar
Martin Pizzarelli – double-bass
Ray Kennedy – piano
[свернуть]

EAC лог

Exact Audio Copy V1.0 beta 3 from 29. August 2011

EAC extraction logfile from 30. March 2015, 18:57

John Pizzarelli / Let There Be Love

Used drive : ATAPI iHAS124 D Adapter: 0 ID: 2

Read mode : Secure
Utilize accurate stream : Yes
Defeat audio cache : Yes
Make use of C2 pointers : No

Read offset correction : 6
Overread into Lead-In and Lead-Out : No
Fill up missing offset samples with silence : Yes
Delete leading and trailing silent blocks : No
Null samples used in CRC calculations : Yes
Used interface : Installed external ASPI interface

Used output format : User Defined Encoder
Selected bitrate : 1024 kBit/s
Quality : High
Add ID3 tag : No
Command line compressor : C:\Program Files (x86)\Exact Audio Copy\Flac\flac.exe
Additional command line options : -6 -V -T "ARTIST=%artist%" -T "TITLE=%title%" -T "ALBUM=%albumtitle%" -T "DATE=%year%" -T "TRACKNUMBER=%tracknr%" -T "GENRE=%genre%" -T "COMMENT=%comment%" -T "BAND=%albuminterpret%" -T "COMPOSER=%composer%" %haslyrics%--tag-from-file=LYRICS="%lyricsfile%"%haslyrics% -T "DISCNUMBER=%cdnumber%" -T "TOTALDISCS=%totalcds%" -T "TOTALTRACKS=%numtracks%" %hascover%--picture="%coverfile%"%hascover% %source% -o %dest%


TOC of the extracted CD

Track | Start | Length | Start sector | End sector
---------------------------------------------------------
1 | 0:00.00 | 2:43.12 | 0 | 12236
2 | 2:43.12 | 3:39.68 | 12237 | 28729
3 | 6:23.05 | 3:58.40 | 28730 | 46619
4 | 10:21.45 | 2:47.37 | 46620 | 59181
5 | 13:09.07 | 4:00.10 | 59182 | 77191
6 | 17:09.17 | 4:19.45 | 77192 | 96661
7 | 21:28.62 | 4:33.63 | 96662 | 117199
8 | 26:02.50 | 2:46.52 | 117200 | 129701
9 | 28:49.27 | 3:01.10 | 129702 | 143286
10 | 31:50.37 | 3:29.23 | 143287 | 158984
11 | 35:19.60 | 3:44.35 | 158985 | 175819
12 | 39:04.20 | 4:00.60 | 175820 | 193879
13 | 43:05.05 | 2:45.10 | 193880 | 206264
14 | 45:50.15 | 3:19.50 | 206265 | 221239
15 | 49:09.65 | 4:54.27 | 221240 | 243316


Range status and errors

Selected range

Filename C:\mm\John Pizzarelli\2000 - Let There Be Love [CD-83518]\John Pizzarelli - Let There Be Love.wav

Peak level 100.0 %
Extraction speed 9.5 X
Range quality 100.0 %
Test CRC 84CA47CF
Copy CRC 84CA47CF
Copy OK

No errors occurred


AccurateRip summary

Track 1 accurately ripped (confidence 3) [F160045C] (AR v2)
Track 2 accurately ripped (confidence 3) [BDA37A67] (AR v2)
Track 3 accurately ripped (confidence 3) [268521A7] (AR v2)
Track 4 accurately ripped (confidence 3) [5C106877] (AR v2)
Track 5 accurately ripped (confidence 3) [3D053174] (AR v2)
Track 6 accurately ripped (confidence 3) [A5E66F23] (AR v2)
Track 7 accurately ripped (confidence 3) [B8DD1935] (AR v2)
Track 8 accurately ripped (confidence 3) [96817E4D] (AR v2)
Track 9 accurately ripped (confidence 3) [BB4A8B5E] (AR v2)
Track 10 accurately ripped (confidence 3) [B54079C7] (AR v2)
Track 11 accurately ripped (confidence 3) [26319D7D] (AR v2)
Track 12 accurately ripped (confidence 3) [DCE93BD0] (AR v2)
Track 13 accurately ripped (confidence 3) [7C61A2D9] (AR v2)
Track 14 accurately ripped (confidence 3) [4A8ABE60] (AR v2)
Track 15 accurately ripped (confidence 3) [4FC06B87] (AR v2)

All tracks accurately ripped

End of status report
[свернуть]

Файл CUE

REM GENRE Jazz
REM DATE 2000
REM DISCID C00CAC0F
REM COMMENT "ExactAudioCopy v1.0b3"
PERFORMER "John Pizzarelli"
TITLE "Let There Be Love"
FILE "John Pizzarelli - Let There Be Love.flac" WAVE
TRACK 01 AUDIO
TITLE "Let There Be Love"
PERFORMER "John Pizzarelli"
INDEX 01 00:00:00
TRACK 02 AUDIO
TITLE "I'm Putting All My Eggs In One Basket"
PERFORMER "John Pizzarelli"
INDEX 01 02:43:12
TRACK 03 AUDIO
TITLE "These Foolish Things"
PERFORMER "John Pizzarelli"
INDEX 01 06:23:05
TRACK 04 AUDIO
TITLE "All I Saw Was You"
PERFORMER "John Pizzarelli"
INDEX 01 10:21:45
TRACK 05 AUDIO
TITLE "Everything I Have Is Yours"
PERFORMER "John Pizzarelli"
INDEX 01 13:09:07
TRACK 06 AUDIO
TITLE "Stompin' At The Savoy"
PERFORMER "John Pizzarelli"
INDEX 01 17:09:17
TRACK 07 AUDIO
TITLE "Follow"
PERFORMER "John Pizzarelli"
INDEX 01 21:28:62
TRACK 08 AUDIO
TITLE "Our Little Secret"
PERFORMER "John Pizzarelli"
INDEX 01 26:02:50
TRACK 09 AUDIO
TITLE "You'll Never Know"
PERFORMER "John Pizzarelli"
INDEX 00 28:48:07
INDEX 01 28:49:27
TRACK 10 AUDIO
TITLE "I Don't Know Why (I Just Do)"
PERFORMER "John Pizzarelli"
INDEX 00 31:48:27
INDEX 01 31:50:37
TRACK 11 AUDIO
TITLE "Our Love Rolls On"
PERFORMER "John Pizzarelli"
INDEX 01 35:19:60
TRACK 12 AUDIO
TITLE "Just One More Chance"
PERFORMER "John Pizzarelli"
INDEX 01 39:04:20
TRACK 13 AUDIO
TITLE "Lucky Charm"
PERFORMER "John Pizzarelli"
INDEX 01 43:05:05
TRACK 14 AUDIO
TITLE "Da Vinci's Eyes"
PERFORMER "John Pizzarelli"
INDEX 00 45:47:40
INDEX 01 45:50:15
TRACK 15 AUDIO
TITLE "What Is There To Say"
PERFORMER "John Pizzarelli"
INDEX 01 49:09:65
[свернуть]

Лог проверки качества

AUDIOCHECKER v2.0 beta (build 457) - by Dester -
~~~~~~~~~~~~~~~~~~~~~~~~~~~~~~~~~~
-=== НЕ РЕДАКТИРУЙТЕ ЭТОТ ФАЙЛ! ===-

Путь: ...\2000 - Let There Be Love [CD-83518]

1 -=- John Pizzarelli - Let There Be Love.flac -=- CDDA (100%)

112200244
[свернуть]

Спектр частот

[свернуть]

Скачать John Pizzarelli - Let There Be Love



password: sergych
[свернуть]
My opinion of release: 9/10
__________________
TAIFUN.Wings of Soul

Вверх
Пользователь сказал cпасибо:
arthur73 (19.04.2015)
Похожие темы
Тема Автор Раздел Ответов Последнее сообщение
Альбом John Pizzarelli - One Night With You. The John Pizzarelli Collection sergych Jazz и Blues 0 20.12.2014 07:45
Альбом John Pizzarelli - All Of Me sergych Jazz и Blues 0 27.03.2014 16:40
Сборник John Pizzarelli - The Best of John Pizzarelli. I Like Jersey Best sergych Jazz и Blues 0 16.10.2013 20:40
Альбом John Pizzarelli - P.S. Mr.Cole sergych Jazz и Blues 2 24.12.2010 20:35


Метки
2000 , contemporary jazz , john pizzarelli , let there be love , smooth jazz , swing , vocal jazz

Опции темы

Ваши права в разделе
Вы не можете создавать новые темы
Вы не можете отвечать в темах
Вы не можете прикреплять вложения
Вы не можете редактировать свои сообщения

Быстрый переход



Текущее время: 04:20. Часовой пояс GMT +3.
Powered by vBulletin® Version 3.8.10
Copyright ©2000 - 2018, vBulletin Solutions, Inc. Перевод: zCarot
© 2008 - 2018 Taifun With Song
Яндекс.Метрика