1
[Альбом] John Pizzarelli - One Night With You. The John Pizzarelli Collection - TAIFUN With Song
TAIFUN With Song
Навигация
Вернуться   TAIFUN With Song > Music (обменник) > Другие направления музыки > Jazz и Blues
Расширенный поиск
Jazz и Blues Гибкая ритмика, импровизационное начало, гармонии и мелодии - все это Jazz. Blues - жизнеутверждающая музыка, рожденная из душевной боли

А знаете ли Вы, что...
Чья кровь применялась при печати комиксов?
«Участники группы KISS для раскрутки первого комикса о себе сдали кровь и смешали её с красными чернилами в издающей комикс типографии.»
 
Опции темы

  #1
Старый 20.12.2014, 08:45
sergych
Координатор
Досье
 
Аватар для sergych
Релиз John Pizzarelli - One Night With You. The John Pizzarelli Collection


1996 - John Pizzarelli - One Night With You. The John Pizzarelli Collection




Исполнитель/Artist: John Pizzarelli
Альбом/Album: One Night With You. The John Pizzarelli Collection
Год/Year: 1996
Жанр/Genre: jazz, swing
Страна/Country: Соединённые Штаты
Рекорд-лейбл/Record label: Chesky Records
Номер в каталоге/Catalogue #: JD153
Формат/Format: Free Lossless Audio Codec (*.flac)
Качество/Quality: Lossless
Тип рипа/RIP Type: image+.cue
Продолжительность/Length: 00:56:53
Источник/Source: Собственный рип
Размер/Size: 324.3 MB

Сканы в комплекте

Треклист

01. It Could Happen To You [0:03:25.72]
02. I'm Through With Love [0:04:04.28]
03. The Touch Of Your Lips [0:02:33.35]
04. I'll Never Be The Same [0:03:28.10]
05. Lady Be Good [0:08:04.40]
06. Stray Horn [0:02:43.49]
07. Oh Me, Oh My, Oh Gosh [0:03:28.16]
08. Do Nothing 'Till You Hear From Me [0:06:43.57]
09. Candy [0:03:38.10]
10. Don't Get Around Much Anymore [0:03:13.10]
11. Early Autumn [0:05:00.48]
12. Take My Smile [0:02:54.59]
13. Passion Flower [0:04:15.01]
14. Gee Baby Ain't I Good To You [0:03:19.54]
[свернуть]

Исполнители/Performers

John Pizzarelli - guitars, vocals
Bucky Pizzarelli - guitar
Milt Hinton - bass
Ron Carter - bass (tracks 1,8)
Michael Moore - bass (track 2)
Connie Kay - drums
Butch Miles - drums (tracks 2,4,8,11)
Clarck Terry - trumpet
Dave McKenna - piano
Johnny Frigo - violin
[свернуть]

EAC лог

Exact Audio Copy V1.0 beta 3 from 29. August 2011

EAC extraction logfile from 19. December 2014, 21:10

John Pizzarelli / One Night With You. The John Pizzarelli Collection

Used drive : ATAPI iHAS124 D Adapter: 0 ID: 2

Read mode : Secure
Utilize accurate stream : Yes
Defeat audio cache : Yes
Make use of C2 pointers : No

Read offset correction : 6
Overread into Lead-In and Lead-Out : No
Fill up missing offset samples with silence : Yes
Delete leading and trailing silent blocks : No
Null samples used in CRC calculations : Yes
Used interface : Installed external ASPI interface

Used output format : User Defined Encoder
Selected bitrate : 1024 kBit/s
Quality : High
Add ID3 tag : No
Command line compressor : C:\Program Files (x86)\Exact Audio Copy\Flac\flac.exe
Additional command line options : -6 -V -T "ARTIST=%artist%" -T "TITLE=%title%" -T "ALBUM=%albumtitle%" -T "DATE=%year%" -T "TRACKNUMBER=%tracknr%" -T "GENRE=%genre%" -T "COMMENT=%comment%" -T "BAND=%albuminterpret%" -T "COMPOSER=%composer%" %haslyrics%--tag-from-file=LYRICS="%lyricsfile%"%haslyrics% -T "DISCNUMBER=%cdnumber%" -T "TOTALDISCS=%totalcds%" -T "TOTALTRACKS=%numtracks%" %hascover%--picture="%coverfile%"%hascover% %source% -o %dest%


TOC of the extracted CD

Track | Start | Length | Start sector | End sector
---------------------------------------------------------
1 | 0:00.30 | 3:25.72 | 30 | 15476
2 | 3:26.27 | 4:04.28 | 15477 | 33804
3 | 7:30.55 | 2:33.35 | 33805 | 45314
4 | 10:04.15 | 3:28.10 | 45315 | 60924
5 | 13:32.25 | 8:04.40 | 60925 | 97264
6 | 21:36.65 | 2:43.49 | 97265 | 109538
7 | 24:20.39 | 3:28.16 | 109539 | 125154
8 | 27:48.55 | 6:43.57 | 125155 | 155436
9 | 34:32.37 | 3:38.10 | 155437 | 171796
10 | 38:10.47 | 3:13.10 | 171797 | 186281
11 | 41:23.57 | 5:00.48 | 186282 | 208829
12 | 46:24.30 | 2:54.59 | 208830 | 221938
13 | 49:19.14 | 4:15.01 | 221939 | 241064
14 | 53:34.15 | 3:19.54 | 241065 | 256043


Range status and errors

Selected range

Filename C:\mm\John Pizzarelli\1996 - One Night With You. The John Pizzarelli Collection [JD153]\One Night With You. The John Pizzarelli Collection.wav

Peak level 99.9 %
Extraction speed 8.9 X
Range quality 99.9 %
Test CRC CFC8D5A8
Copy CRC CFC8D5A8
Copy OK

No errors occurred


AccurateRip summary

Track 1 accurately ripped (confidence 6) [E6E8D4CF] (AR v2)
Track 2 accurately ripped (confidence 6) [71611FC5] (AR v2)
Track 3 accurately ripped (confidence 6) [171C38EA] (AR v2)
Track 4 accurately ripped (confidence 6) [E5111F27] (AR v2)
Track 5 accurately ripped (confidence 6) [5C6F63C0] (AR v2)
Track 6 accurately ripped (confidence 6) [8682BAC4] (AR v2)
Track 7 accurately ripped (confidence 6) [6CA16D0D] (AR v2)
Track 8 accurately ripped (confidence 6) [68EF4123] (AR v2)
Track 9 accurately ripped (confidence 6) [BAE51E95] (AR v2)
Track 10 accurately ripped (confidence 6) [C99E069B] (AR v2)
Track 11 accurately ripped (confidence 6) [442E153F] (AR v2)
Track 12 accurately ripped (confidence 6) [490E03C5] (AR v2)
Track 13 accurately ripped (confidence 6) [7E1E2090] (AR v2)
Track 14 accurately ripped (confidence 6) [4698C21C] (AR v2)

All tracks accurately ripped

End of status report
[свернуть]

Файл CUE

REM GENRE Jazz
REM DATE 1996
REM DISCID C30D550E
REM COMMENT "ExactAudioCopy v1.0b3"
PERFORMER "John Pizzarelli"
TITLE "One Night With You. The John Pizzarelli Collection"
FILE "One Night With You. The John Pizzarelli Collection.flac" WAVE
TRACK 01 AUDIO
TITLE "It Could Happen To You"
PERFORMER "John Pizzarelli"
INDEX 00 00:00:00
INDEX 01 00:00:30
TRACK 02 AUDIO
TITLE "I'm Through With Love"
PERFORMER "John Pizzarelli"
INDEX 01 03:26:27
TRACK 03 AUDIO
TITLE "The Touch Of Your Lips"
PERFORMER "John Pizzarelli"
INDEX 01 07:30:55
TRACK 04 AUDIO
TITLE "I'll Never Be The Same"
PERFORMER "John Pizzarelli"
INDEX 01 10:04:15
TRACK 05 AUDIO
TITLE "Lady Be Good"
PERFORMER "John Pizzarelli"
INDEX 01 13:32:25
TRACK 06 AUDIO
TITLE "Stray Horn"
PERFORMER "John Pizzarelli"
INDEX 01 21:36:65
TRACK 07 AUDIO
TITLE "Oh Me, Oh My, Oh Gosh"
PERFORMER "John Pizzarelli"
INDEX 01 24:20:39
TRACK 08 AUDIO
TITLE "Do Nothing 'Till You Hear From Me"
PERFORMER "John Pizzarelli"
INDEX 01 27:48:55
TRACK 09 AUDIO
TITLE "Candy"
PERFORMER "John Pizzarelli"
INDEX 01 34:32:37
TRACK 10 AUDIO
TITLE "Don't Get Around Much Anymore"
PERFORMER "John Pizzarelli"
INDEX 01 38:10:47
TRACK 11 AUDIO
TITLE "Early Autumn"
PERFORMER "John Pizzarelli"
INDEX 01 41:23:57
TRACK 12 AUDIO
TITLE "Take My Smile"
PERFORMER "John Pizzarelli"
INDEX 01 46:24:30
TRACK 13 AUDIO
TITLE "Passion Flower"
PERFORMER "John Pizzarelli"
INDEX 01 49:19:14
TRACK 14 AUDIO
TITLE "Gee Baby Ain't I Good To You"
PERFORMER "John Pizzarelli"
INDEX 01 53:34:15
[свернуть]

Лог проверки качества

AUDIOCHECKER v2.0 beta (build 457) - by Dester - [Ссылки могут видеть только зарегистрированные и активированные пользователи.]
[Only registered and activated users can see links.]
~~~~~~~~~~~~~~~~~~~~~~~~~~~~~~~~~~
-=== НЕ РЕДАКТИРУЙТЕ ЭТОТ ФАЙЛ! ===-

Путь: ...\1996 - One Night With You. The John Pizzarelli Collection [JD153]

1 -=- One Night With You. The John Pizzarelli Collection.flac -=- CDDA (100%)

163538788
[свернуть]

Спектр частот

[свернуть]

Скачать John Pizzarelli - One Night With You. The John Pizzarelli Collection

[Ссылки могут видеть только зарегистрированные и активированные пользователи.]
[Only registered and activated users can see links.]

password: sergych
[свернуть]
My opinion of release: 10/10

Release info RInfo

Альбом собран из записей сессий 1988 и 1990 годов
__________________
TAIFUN.Wings of Soul

Вверх
Пользователь сказал cпасибо:
aheron (20.12.2014)
Похожие темы
Тема Автор Раздел Ответов Последнее сообщение
Альбом John Pizzarelli - New Standards sergych Jazz и Blues 0 17.04.2015 22:05
Альбом John Pizzarelli - All Of Me sergych Jazz и Blues 0 27.03.2014 17:40
Альбом John Pizzarelli - After Hours sergych Jazz и Blues 0 23.11.2013 09:47
Сборник John Pizzarelli - The Best of John Pizzarelli. I Like Jersey Best sergych Jazz и Blues 0 16.10.2013 21:40
Альбом John Pizzarelli - P.S. Mr.Cole sergych Jazz и Blues 2 24.12.2010 21:35


Метки
1996 , jazz , john pizzarelli , one night with you. the john pizzarelli collection , swing

Опции темы

Ваши права в разделе
Вы не можете создавать новые темы
Вы не можете отвечать в темах
Вы не можете прикреплять вложения
Вы не можете редактировать свои сообщения

Быстрый переход



Текущее время: 01:54. Часовой пояс GMT +3.
Powered by vBulletin® Version 3.8.10
Copyright ©2000 - 2018, vBulletin Solutions, Inc. Перевод: zCarot
© 2008 - 2018 Taifun With Song
Яндекс.Метрика