TAIFUN With Song
Навигация
Jazz и Blues Гибкая ритмика, импровизационное начало, гармонии и мелодии - все это Jazz. Blues - жизнеутверждающая музыка, рожденная из душевной боли

А знаете ли Вы, что...
Когда и у кого отобрали ранее врученную музыкальную премию Грэмми?
«В 1987 году продюсер Boney M задумал новый проект под названием Milli Vanilli. Однако внешность основных исполнителей оказалась не соответствующей ожиданиям молодёжной аудитории, и так получилось, что лицом группы стали два танцора, всегда поющие «под фанеру». Вскоре группа обрела сверхпопулярность по всему миру, но длилось это недолго, и музыканты были разоблачены. Компания-производитель дисков стала возвращать всем желающим деньги за альбом, а у дуэта отобрали ранее врученную премию Грэмми — единственный случай в истории этой музыкальной награды.»
 
Опции темы

  #1
Старый 27.03.2014, 16:40
sergych
Координатор
Досье
 
Аватар для sergych
Релиз John Pizzarelli - All Of Me


1992(1999) - John Pizzarelli - All Of Me




Исполнитель/Artist: John Pizzarelli
Альбом/Album: All Of Me
Год/Year: 1992
Ремастеринг/Remaster: 1999
Жанр/Genre: Jazz, Smooth jazz, Funky
Страна/Country: Соединённые Штаты
Рекорд-лейбл/Record label: BMG Music / Jazz Heritage
Номер в каталоге/Catalogue #: 515428T
Формат/Format: Free Lossless Audio Codec (*.flac)
Качество/Quality: Lossless
Тип рипа/RIP Type: image+.cue
Продолжительность/Length: 00:48:44
Источник/Source: Собственный рип
Размер/Size: 281.9 MB

Сканы в комплекте

Треклист

01. Three Little Words [0:02:54.55]
02. If I Had You [0:04:20.43]
03. The More I See You [0:04:43.35]
04. S'Wonderful [0:06:11.67]
05. This Will Make You Laugh [0:04:02.15]
06. All Of Me [0:04:23.68]
07. The River Is Blue [0:04:08.15]
08. I Know That You Know [0:02:35.20]
09. For All We Know [0:04:24.60]
10. Love Falls Into Place [0:04:22.05]
11. My Baby Just Cares For Me [0:03:37.52]
12. Roslyn [0:02:59.68]
[свернуть]

youtube.com

[свернуть]

Исполнители/Performers

John Pizzarelli - guitar, vocals, arrangements, producer
Martin Pizzarelli - double-bass
Alan Martin, Louann Montesi, John Pintavalle, Alvin Rogers, Marilyn Wright, Anthony Posk, Ariana Bronne, Ruth Buffington, Peter Dimitriades, Max Ellen, Gerald Tarack, Charles Libove - violin
Jim Pugh, Rocky Ciccarone, Paul Faulise, Michael Davis - Trombone
Randy Sandke, Anthony Kadleck, Anthony Ponella - Trumpet
Sol Schlinger - Flute, Baritone saxophone
William Kerr, John Frosk - Flute
Anne Callahan, Avron Coleman, Janet Nepkie, Seymour Barab - Cello
Scott Robinson - Flute, Soprano saxophone, Tenor saxophone
Joe Cocuzzo, Tony Corbiscello - drums
Lawrence Feldman - Flute
Gordon Gottlieb - percussion, Vibraphone
Frank Griffith - tenor saxophone
Ken Levinsky - piano
Walter Levinsky - Alto saxophone
Dick Lieb - Conductor, Musical arrangement
Phil Bodner - Flute, alto sax
Bucky Pizzarelli - acoustic guitar, rhythm guitar, liner notes, vocals
[свернуть]

EAC лог

Exact Audio Copy V1.0 beta 3 from 29. August 2011

EAC extraction logfile from 27. March 2014, 19:58

John Pizzarelli / All Of Me

Used drive : ATAPI iHAS124 D Adapter: 0 ID: 2

Read mode : Secure
Utilize accurate stream : Yes
Defeat audio cache : Yes
Make use of C2 pointers : No

Read offset correction : 6
Overread into Lead-In and Lead-Out : No
Fill up missing offset samples with silence : Yes
Delete leading and trailing silent blocks : No
Null samples used in CRC calculations : Yes
Used interface : Installed external ASPI interface

Used output format : User Defined Encoder
Selected bitrate : 1024 kBit/s
Quality : High
Add ID3 tag : No
Command line compressor : C:\Program Files (x86)\Exact Audio Copy\Flac\flac.exe
Additional command line options : -6 -V -T "ARTIST=%artist%" -T "TITLE=%title%" -T "ALBUM=%albumtitle%" -T "DATE=%year%" -T "TRACKNUMBER=%tracknr%" -T "GENRE=%genre%" -T "COMMENT=%comment%" -T "BAND=%albuminterpret%" -T "COMPOSER=%composer%" %haslyrics%--tag-from-file=LYRICS="%lyricsfile%"%haslyrics% -T "DISCNUMBER=%cdnumber%" -T "TOTALDISCS=%totalcds%" -T "TOTALTRACKS=%numtracks%" %hascover%--picture="%coverfile%"%hascover% %source% -o %dest%


TOC of the extracted CD

Track | Start | Length | Start sector | End sector
---------------------------------------------------------
1 | 0:00.37 | 2:54.55 | 37 | 13141
2 | 2:55.17 | 4:20.43 | 13142 | 32684
3 | 7:15.60 | 4:43.35 | 32685 | 53944
4 | 11:59.20 | 6:11.67 | 53945 | 81836
5 | 18:11.12 | 4:02.15 | 81837 | 100001
6 | 22:13.27 | 4:23.68 | 100002 | 119794
7 | 26:37.20 | 4:08.15 | 119795 | 138409
8 | 30:45.35 | 2:35.20 | 138410 | 150054
9 | 33:20.55 | 4:24.60 | 150055 | 169914
10 | 37:45.40 | 4:22.05 | 169915 | 189569
11 | 42:07.45 | 3:37.52 | 189570 | 205896
12 | 45:45.22 | 2:59.68 | 205897 | 219389


Range status and errors

Selected range

Filename C:\mm\John Pizzarelli\1992(1999) - All Of Me [515428T]\John Pizzarelli - All Of Me.wav

Peak level 95.0 %
Extraction speed 8.5 X
Range quality 100.0 %
Test CRC 3097C45A
Copy CRC 3097C45A
Copy OK

No errors occurred


AccurateRip summary

Track 1 cannot be verified as accurate (confidence 5) [0D24BA86], AccurateRip returned [89F6BCC1] (AR v2)
Track 2 cannot be verified as accurate (confidence 5) [6316CF39], AccurateRip returned [2324EB1E] (AR v2)
Track 3 cannot be verified as accurate (confidence 5) [5240E954], AccurateRip returned [56C40BAD] (AR v2)
Track 4 cannot be verified as accurate (confidence 5) [642A0CD2], AccurateRip returned [C0598507] (AR v2)
Track 5 cannot be verified as accurate (confidence 5) [E3AD9408], AccurateRip returned [5A1DD2CE] (AR v2)
Track 6 cannot be verified as accurate (confidence 5) [CB7733CA], AccurateRip returned [2E92C285] (AR v2)
Track 7 cannot be verified as accurate (confidence 5) [654BC191], AccurateRip returned [7BAE0EB7] (AR v2)
Track 8 cannot be verified as accurate (confidence 5) [839534F0], AccurateRip returned [8CC3CAF4] (AR v2)
Track 9 cannot be verified as accurate (confidence 5) [0B494FD6], AccurateRip returned [95A85686] (AR v2)
Track 10 cannot be verified as accurate (confidence 5) [178448CE], AccurateRip returned [19AA5FC8] (AR v2)
Track 11 cannot be verified as accurate (confidence 5) [3A7A508E], AccurateRip returned [2325BED4] (AR v2)
Track 12 cannot be verified as accurate (confidence 5) [4E83ACE6], AccurateRip returned [97489D1B] (AR v2)

No tracks could be verified as accurate
You may have a different pressing from the one(s) in the database

End of status report
[свернуть]

Файл CUE

REM GENRE Jazz
REM DATE 1992
REM DISCID A90B6D0C
REM COMMENT "ExactAudioCopy v1.0b3"
PERFORMER "John Pizzarelli"
TITLE "All Of Me"
FILE "John Pizzarelli - All Of Me.flac" WAVE
TRACK 01 AUDIO
TITLE "Three Little Words"
PERFORMER "John Pizzarelli"
INDEX 00 00:00:00
INDEX 01 00:00:37
TRACK 02 AUDIO
TITLE "If I Had You"
PERFORMER "John Pizzarelli"
INDEX 01 02:55:17
TRACK 03 AUDIO
TITLE "The More I See You"
PERFORMER "John Pizzarelli"
INDEX 01 07:15:60
TRACK 04 AUDIO
TITLE "S'Wonderful"
PERFORMER "John Pizzarelli"
INDEX 00 11:58:13
INDEX 01 11:59:20
TRACK 05 AUDIO
TITLE "This Will Make You Laugh"
PERFORMER "John Pizzarelli"
INDEX 00 18:10:22
INDEX 01 18:11:12
TRACK 06 AUDIO
TITLE "All Of Me"
PERFORMER "John Pizzarelli"
INDEX 00 22:13:02
INDEX 01 22:13:27
TRACK 07 AUDIO
TITLE "The River Is Blue"
PERFORMER "John Pizzarelli"
INDEX 00 26:35:35
INDEX 01 26:37:20
TRACK 08 AUDIO
TITLE "I Know That You Know"
PERFORMER "John Pizzarelli"
INDEX 00 30:44:50
INDEX 01 30:45:35
TRACK 09 AUDIO
TITLE "For All We Know"
PERFORMER "John Pizzarelli"
INDEX 00 33:19:18
INDEX 01 33:20:55
TRACK 10 AUDIO
TITLE "Love Falls Into Place"
PERFORMER "John Pizzarelli"
INDEX 00 37:44:60
INDEX 01 37:45:40
TRACK 11 AUDIO
TITLE "My Baby Just Cares For Me"
PERFORMER "John Pizzarelli"
INDEX 00 42:07:08
INDEX 01 42:07:45
TRACK 12 AUDIO
TITLE "Roslyn"
PERFORMER "John Pizzarelli"
INDEX 00 45:43:55
INDEX 01 45:45:22
[свернуть]

Лог проверки качества

AUDIOCHECKER v2.0 beta (build 457) - by Dester -
~~~~~~~~~~~~~~~~~~~~~~~~~~~~~~~~~~
-=== НЕ РЕДАКТИРУЙТЕ ЭТОТ ФАЙЛ! ===-

Путь: ...\1992(1999) - All Of Me [515428T]

1 -=- John Pizzarelli - All Of Me.flac -=- CDDA (100%)

7352500
[свернуть]

Спектр частот

[свернуть]

Скачать John Pizzarelli - All Of Me



password: sergych
[свернуть]
My opinion of release: 10/10
__________________
TAIFUN.Wings of Soul

Вверх
Похожие темы
Тема Автор Раздел Ответов Последнее сообщение
Альбом John Pizzarelli - New Standards sergych Jazz и Blues 0 17.04.2015 21:05
Альбом John Pizzarelli - After Hours sergych Jazz и Blues 0 23.11.2013 08:47
Сборник John Pizzarelli - The Best of John Pizzarelli. I Like Jersey Best sergych Jazz и Blues 0 16.10.2013 20:40
Альбом John Pizzarelli - P.S. Mr.Cole sergych Jazz и Blues 2 24.12.2010 20:35


Метки
1992 , all of me , funky , jazz , john pizzarelli , smooth jazz

Опции темы

Ваши права в разделе
Вы не можете создавать новые темы
Вы не можете отвечать в темах
Вы не можете прикреплять вложения
Вы не можете редактировать свои сообщения

Быстрый переход



Текущее время: 03:58. Часовой пояс GMT +3.
Powered by vBulletin® Version 3.8.10
Copyright ©2000 - 2018, vBulletin Solutions, Inc. Перевод: zCarot
© 2008 - 2018 Taifun With Song
Яндекс.Метрика