TAIFUN With Song
Навигация
Вернуться   TAIFUN With Song > Music (обменник) > Другие направления музыки > Jazz и Blues
Расширенный поиск
Jazz и Blues Гибкая ритмика, импровизационное начало, гармонии и мелодии - все это Jazz. Blues - жизнеутверждающая музыка, рожденная из душевной боли

А знаете ли Вы, что...
Почему обложку музыкального сборника
«В 2005 году Sony BMG выпустила музыкальный сборник ‘Electric 80s’. В оформлении обложки диска был использован большой штрих-код. Некоторые супермаркеты потерпели убытки после того, как их продавцы считывали сканерами именно этот штрих-код вместо обычного, располагающегося на обратной стороне диска. Сканеры распознавали по коду другой товар, который стоил дешевле. Во второй партии дисков обложка была изменена.»
 
Опции темы

  #1
Старый 16.10.2013, 21:40
sergych
Координатор
Досье
 
Аватар для sergych
Релиз John Pizzarelli - The Best of John Pizzarelli. I Like Jersey Best


1994 - John Pizzarelli - The Best of John Pizzarelli. I Like Jersey Best




Исполнитель/Artist: John Pizzarelli
Альбом/Album: The Best of John Pizzarelli. I Like Jersey Best
Год/Year: 1994
Жанр/Genre: jazz, vocal jazz, swing, smooth jazz
Рекорд-лейбл/Record label: Stash
Формат/Format: Free Lossless Audio Codec (*.flac)
Качество/Quality: Lossless
Тип рипа/RIP Type: image+.cue
Продолжительность/Length: 01:03:19
Источник/Source: Из интернета
Размер/Size: 326.6 MB


Треклист

01 - I Like Jersey Best
02 - Zing! Went The Strings of My Heart
03 - The Frim-Fram Sauce
04 - Better Luck Next Time
05 - Route 66
06 - Sing! Sing! Sing!
07 - This Will Make You Laugh
08 - A Sleeping Bee
09 - Straighten Up and Fly Right
10 - I Guess I’ll Have to Change My Plan
11 - Knock Me a Kiss
12 - Racing With the Moon
13 - I Was a Little Too Lonely
14 - Sutton Mutton
15 - You’re Nobody Till Somebody Loves You
16 - Couldn’t You Read My Mind?
17 - For Sentimental Reasons
18 - Goodbye
19 - Baby, Baby All the Time
20 - Hit That Jive, Jack!
21 - The Trouble with Me Is You
22 - I’m Hip
[свернуть]

youtube.com

[свернуть]

EAC лог

Exact Audio Copy V1.0 beta 3 from 29. August 2011

EAC extraction logfile from 16. October 2013, 15:24

John Pizzarelli / The Best of John Pizzarelli

Used drive : HL-DT-STDVDRAM GH22NS50 Adapter: 3 ID: 0

Read mode : Secure
Utilize accurate stream : Yes
Defeat audio cache : Yes
Make use of C2 pointers : No

Read offset correction : 667
Overread into Lead-In and Lead-Out : No
Fill up missing offset samples with silence : Yes
Delete leading and trailing silent blocks : No
Null samples used in CRC calculations : Yes
Used interface : Installed external ASPI interface

Used output format : User Defined Encoder
Selected bitrate : 1024 kBit/s
Quality : High
Add ID3 tag : No
Command line compressor : C:\MMProgram\Exact Audio Copy\FLAC\FLAC.EXE
Additional command line options : -6 -V -T "ARTIST=%artist%" -T "TITLE=%title%" -T "ALBUM=%albumtitle%" -T "DATE=%year%" -T "TRACKNUMBER=%tracknr%" -T "GENRE=%genre%" -T "COMMENT=%comment%" -T "BAND=%albuminterpret%" -T "ALBUMARTIST=%albuminterpret%" -T "COMPOSER=%composer%" %haslyrics%--tag-from-file=LYRICS="%lyricsfile%"%haslyrics% -T "DISCNUMBER=%cdnumber%" -T "TOTALDISCS=%totalcds%" -T "TOTALTRACKS=%numtracks%" %hascover%--picture="%coverfile%"%hascover% %source% -o %dest%


TOC of the extracted CD

Track | Start | Length | Start sector | End sector
---------------------------------------------------------
1 | 0:00.00 | 4:15.70 | 0 | 19194
2 | 4:15.70 | 2:41.25 | 19195 | 31294
3 | 6:57.20 | 2:43.10 | 31295 | 43529
4 | 9:40.30 | 2:37.22 | 43530 | 55326
5 | 12:17.52 | 3:16.00 | 55327 | 70026
6 | 15:33.52 | 3:26.30 | 70027 | 85506
7 | 19:00.07 | 3:12.00 | 85507 | 99906
8 | 22:12.07 | 3:13.73 | 99907 | 114454
9 | 25:26.05 | 2:16.55 | 114455 | 124709
10 | 27:42.60 | 2:24.15 | 124710 | 135524
11 | 30:07.00 | 2:01.30 | 135525 | 144629
12 | 32:08.30 | 3:32.32 | 144630 | 160561
13 | 35:40.62 | 2:20.53 | 160562 | 171114
14 | 38:01.40 | 2:20.10 | 171115 | 181624
15 | 40:21.50 | 2:17.62 | 181625 | 191961
16 | 42:39.37 | 4:11.73 | 191962 | 210859
17 | 46:51.35 | 2:50.05 | 210860 | 223614
18 | 49:41.40 | 2:31.15 | 223615 | 234954
19 | 52:12.55 | 3:01.22 | 234955 | 248551
20 | 55:14.02 | 2:50.40 | 248552 | 261341
21 | 58:04.42 | 2:21.35 | 261342 | 271951
22 | 60:26.02 | 2:53.50 | 271952 | 284976


Range status and errors

Selected range

Filename D:\mm\John Pizzarelli\1994 - The Best of John Pizzarelli\John Pizzarelli - The Best of John Pizzarelli.wav

Peak level 79.4 %
Extraction speed 1.3 X
Range quality 100.0 %
Test CRC F616BE37
Copy CRC F616BE37
Copy OK

No errors occurred


AccurateRip summary

Track 1 accurately ripped (confidence 1) [40E9064F] (AR v2)
Track 2 accurately ripped (confidence 1) [A1ED49A2] (AR v2)
Track 3 accurately ripped (confidence 1) [180E91EB] (AR v2)
Track 4 accurately ripped (confidence 1) [F7EDE476] (AR v2)
Track 5 accurately ripped (confidence 1) [0DF62053] (AR v2)
Track 6 accurately ripped (confidence 1) [3900200E] (AR v2)
Track 7 accurately ripped (confidence 1) [88AF53D6] (AR v2)
Track 8 accurately ripped (confidence 1) [96E25D11] (AR v2)
Track 9 accurately ripped (confidence 1) [147C46C1] (AR v2)
Track 10 accurately ripped (confidence 1) [1857BA8D] (AR v2)
Track 11 accurately ripped (confidence 1) [4776AC66] (AR v2)
Track 12 accurately ripped (confidence 1) [2E2188AE] (AR v2)
Track 13 accurately ripped (confidence 1) [E124841F] (AR v2)
Track 14 accurately ripped (confidence 1) [6ACC3142] (AR v2)
Track 15 accurately ripped (confidence 1) [90513F57] (AR v2)
Track 16 accurately ripped (confidence 1) [A240A3CB] (AR v2)
Track 17 accurately ripped (confidence 1) [62D3CD19] (AR v2)
Track 18 accurately ripped (confidence 1) [10B09020] (AR v2)
Track 19 accurately ripped (confidence 1) [DE46EAAA] (AR v2)
Track 20 accurately ripped (confidence 1) [A6C64784] (AR v2)
Track 21 accurately ripped (confidence 1) [41118537] (AR v2)
Track 22 accurately ripped (confidence 1) [06881071] (AR v2)

All tracks accurately ripped

End of status report
[свернуть]

Файл CUE

REM GENRE Jazz
REM DATE 1994
REM DISCID 3A0ED716
REM COMMENT "ExactAudioCopy v1.0b3"
PERFORMER "John Pizzarelli"
TITLE "The Best of John Pizzarelli"
FILE "John Pizzarelli - The Best of John Pizzarelli.flac" WAVE
TRACK 01 AUDIO
TITLE "I Like Jersey Best"
PERFORMER "John Pizzarelli"
INDEX 01 00:00:00
TRACK 02 AUDIO
TITLE "Zing went the strings of my heart"
PERFORMER "John Pizzarelli"
INDEX 00 04:13:20
INDEX 01 04:15:70
TRACK 03 AUDIO
TITLE "The Frim-fram sauce"
PERFORMER "John Pizzarelli"
INDEX 00 06:54:45
INDEX 01 06:57:20
TRACK 04 AUDIO
TITLE "Better luck next time"
PERFORMER "John Pizzarelli"
INDEX 00 09:37:55
INDEX 01 09:40:30
TRACK 05 AUDIO
TITLE "Route 66"
PERFORMER "John Pizzarelli"
INDEX 00 12:15:02
INDEX 01 12:17:52
TRACK 06 AUDIO
TITLE "Sing, sing, sing"
PERFORMER "John Pizzarelli"
INDEX 00 15:31:02
INDEX 01 15:33:52
TRACK 07 AUDIO
TITLE "This will make you laugh"
PERFORMER "John Pizzarelli"
INDEX 00 18:57:32
INDEX 01 19:00:07
TRACK 08 AUDIO
TITLE "A sleeping bee"
PERFORMER "John Pizzarelli"
INDEX 00 22:09:32
INDEX 01 22:12:07
TRACK 09 AUDIO
TITLE "Straighten up and fly right"
PERFORMER "John Pizzarelli"
INDEX 00 25:23:30
INDEX 01 25:26:05
TRACK 10 AUDIO
TITLE "I guess I'll have to change my plan"
PERFORMER "John Pizzarelli"
INDEX 00 27:40:10
INDEX 01 27:42:60
TRACK 11 AUDIO
TITLE "Knock me a kiss"
PERFORMER "John Pizzarelli"
INDEX 00 30:04:25
INDEX 01 30:07:00
TRACK 12 AUDIO
TITLE "Racing with the moon"
PERFORMER "John Pizzarelli"
INDEX 00 32:05:55
INDEX 01 32:08:30
TRACK 13 AUDIO
TITLE "I was a little too lonely"
PERFORMER "John Pizzarelli"
INDEX 00 35:38:12
INDEX 01 35:40:62
TRACK 14 AUDIO
TITLE "Sutton Mutton"
PERFORMER "John Pizzarelli"
INDEX 00 37:58:65
INDEX 01 38:01:40
TRACK 15 AUDIO
TITLE "Your nobody till somebody loves you"
PERFORMER "John Pizzarelli"
INDEX 00 40:19:00
INDEX 01 40:21:50
TRACK 16 AUDIO
TITLE "Couldn't you read my mind"
PERFORMER "John Pizzarelli"
INDEX 00 42:36:62
INDEX 01 42:39:37
TRACK 17 AUDIO
TITLE "For sentimental reasons"
PERFORMER "John Pizzarelli"
INDEX 00 46:48:60
INDEX 01 46:51:35
TRACK 18 AUDIO
TITLE "Goodby"
PERFORMER "John Pizzarelli"
INDEX 00 49:38:65
INDEX 01 49:41:40
TRACK 19 AUDIO
TITLE "Baby, baby all the time"
PERFORMER "John Pizzarelli"
INDEX 00 52:10:05
INDEX 01 52:12:55
TRACK 20 AUDIO
TITLE "Hit that Jive Jack"
PERFORMER "John Pizzarelli"
INDEX 00 55:11:27
INDEX 01 55:14:02
TRACK 21 AUDIO
TITLE "The trouble with you is me"
PERFORMER "John Pizzarelli"
INDEX 00 58:01:67
INDEX 01 58:04:42
TRACK 22 AUDIO
TITLE "I'm hip"
PERFORMER "John Pizzarelli"
INDEX 00 60:23:27
INDEX 01 60:26:02
[свернуть]

Лог проверки качества

AUDIOCHECKER v2.0 beta (build 457) - by Dester -
~~~~~~~~~~~~~~~~~~~~~~~~~~~~~~~~~~
-=== НЕ РЕДАКТИРУЙТЕ ЭТОТ ФАЙЛ! ===-

Путь: ...\1994 - The Best of John Pizzarelli

1 -=- John Pizzarelli - The Best of John Pizzarelli.flac -=- CDDA (100%)

73183172
[свернуть]

Скачать John Pizzarelli - The Best of John Pizzarelli. I Like Jersey Best



password: sergych
[свернуть]
My opinion of release: 10/10

Release info RInfo

This CD represents a compliation of material from John Pizzarelli's earlier Stash LPs.
__________________
TAIFUN.Wings of Soul

Вверх
Похожие темы
Тема Автор Раздел Ответов Последнее сообщение
Альбом John Pizzarelli - Bossa Nova sergych Jazz и Blues 0 16.10.2013 20:16
Альбом John Pizzarelli - Hit That Jive, Jack! sergych Jazz и Blues 0 15.10.2013 21:40
Альбом John Pizzarelli - P.S. Mr.Cole sergych Jazz и Blues 2 24.12.2010 21:35


Метки
1994 , jazz , john pizzarelli , smooth jazz , swing , the best of john pizzarelli. i like jersey best , vocal jazz

Опции темы

Ваши права в разделе
Вы не можете создавать новые темы
Вы не можете отвечать в темах
Вы не можете прикреплять вложения
Вы не можете редактировать свои сообщения

Быстрый переход



Текущее время: 20:16. Часовой пояс GMT +3.
Powered by vBulletin® Version 3.8.10
Copyright ©2000 - 2018, vBulletin Solutions, Inc. Перевод: zCarot
© 2008 - 2017 Taifun With Song
Яндекс.Метрика