TAIFUN With Song
Навигация
Jazz и Blues Гибкая ритмика, импровизационное начало, гармонии и мелодии - все это Jazz. Blues - жизнеутверждающая музыка, рожденная из душевной боли

А знаете ли Вы, что...
Почему песня «Nothing Else Matters» начинается перебором на открытых струнах?
«В начале песни «Nothing Else Matters» группы Metallica слышен перебор на открытых первой, второй, третьей и шестой струнах. Такое композиционное решение появилось благодаря тому, что её автор Джеймс Хэтфилд, когда начинал сочинять песню, одной рукой держал телефонную трубку и разговаривал со своей девушкой.»
 
Опции темы

  #1
Старый 31.07.2010, 11:51
sergych
Координатор
Досье
 
Аватар для sergych
Релиз John Pizzarelli - P.S. Mr.Cole


1996(1999) - John Pizzarelli - P.S. Mr.Cole




Исполнитель/Artist: John Pizzarelli
Альбом/Album: P.S. Mr.Cole
Год/Year: 1996
Ремастеринг/Remaster: 1999
Жанр/Genre: Jazz, Smooth jazz, Funky
Страна/Country: Европа
Рекорд-лейбл/Record label: RCA Victor
Номер в каталоге/Catalogue #: 09026 63563 2
Формат/Format: Free Lossless Audio Codec (*.flac)
Качество/Quality: Lossless
Тип рипа/RIP Type: tracks+.cue
Продолжительность/Length: 01:06:24
Источник/Source: Из интернета
Размер/Size: 356.9 MB

Сканы в комплекте

Треклист

01 - Walkin' My Baby Back Home
02 - Candy
03 - Welcome To The Club
04 - Indiana
05 - I Love You For Sentimental Reasons
06 - Don't Let It Go To Your Head
07 - Meet Me At No Special Place
08 - The Late Late Show
09 - Smile
10 - Tenderly
11 - I Was A Little Too Lonely
12 - I'm An Errand Boy For Rhythm
13 - Then I'll Be Tired Of You
14 - That's Nat
15 - Azure-Te
16 - I Know That You Know
17 - Embraceable You
18 - I Like Jersey Best
[свернуть]

youtube.com

[свернуть]

Исполнители/Performers

John Pizzarelli - Guitar, Vocals
Martin Pizzarelli - Bass
Ray Kennedy - Piano
Harry Allen - Sax (Tenor)
[свернуть]

EAC лог

EAC extraction logfile from 24. May 2007, 20:07 for CD
John Pizzarelli / P.S. Mr. Cole

Used drive : _NEC DVD_RW ND-3550A Adapter: 0 ID: 1
Read mode : Secure with NO C2, accurate stream, disable cache
Read offset correction : 48
Overread into Lead-In and Lead-Out : No

Used output format : C:\Program Files\FLAC\flac.exe (User Defined Encoder)
128 kBit/s
Additional command line options : -V -8 -T "artist=%a" -T "title=%t" -T "album=%g" -T "date=%y" -T "tracknumber=%n" -T "genre=%m" %s

Other options :
Fill up missing offset samples with silence : Yes
Delete leading and trailing silent blocks : No
Installed external ASPI interface


Track 1
Filename D:\music\rip\John Pizzarelli - P.S. Mr. Cole (1996) [FLAC]\01 - Walkin' My Baby Back Home.wav

Pre-gap length 0:00:02.00

Peak level 98.8 %
Track quality 100.0 %
Test CRC 94C5B4C7
Copy CRC 94C5B4C7
Copy OK

Track 2
Filename D:\music\rip\John Pizzarelli - P.S. Mr. Cole (1996) [FLAC]\02 - Candy.wav

Pre-gap length 0:00:02.10

Peak level 98.8 %
Track quality 100.0 %
Test CRC 4C9DAFB2
Copy CRC 4C9DAFB2
Copy OK

Track 3
Filename D:\music\rip\John Pizzarelli - P.S. Mr. Cole (1996) [FLAC]\03 - Welcome To The Club.wav

Pre-gap length 0:00:01.93

Peak level 98.8 %
Track quality 99.9 %
Test CRC 89B955CC
Copy CRC 89B955CC
Copy OK

Track 4
Filename D:\music\rip\John Pizzarelli - P.S. Mr. Cole (1996) [FLAC]\04 - Indiana.wav

Pre-gap length 0:00:01.96

Peak level 98.8 %
Track quality 100.0 %
Test CRC 45F92F9D
Copy CRC 45F92F9D
Copy OK

Track 5
Filename D:\music\rip\John Pizzarelli - P.S. Mr. Cole (1996) [FLAC]\05 - I Love You For Sentimental Reasons.wav

Pre-gap length 0:00:03.13

Peak level 74.9 %
Track quality 100.0 %
Test CRC E3E5582D
Copy CRC E3E5582D
Copy OK

Track 6
Filename D:\music\rip\John Pizzarelli - P.S. Mr. Cole (1996) [FLAC]\06 - Don't Let It Go To Your Head.wav

Pre-gap length 0:00:01.97

Peak level 98.8 %
Track quality 100.0 %
Test CRC 8F82C5E5
Copy CRC 8F82C5E5
Copy OK

Track 7
Filename D:\music\rip\John Pizzarelli - P.S. Mr. Cole (1996) [FLAC]\07 - Meet Me At No Special Place.wav

Pre-gap length 0:00:02.89

Peak level 98.8 %
Track quality 100.0 %
Test CRC A8B0ED74
Copy CRC A8B0ED74
Copy OK

Track 8
Filename D:\music\rip\John Pizzarelli - P.S. Mr. Cole (1996) [FLAC]\08 - The Late Late Show.wav

Pre-gap length 0:00:01.42

Peak level 98.8 %
Track quality 100.0 %
Test CRC D91D6A0B
Copy CRC D91D6A0B
Copy OK

Track 9
Filename D:\music\rip\John Pizzarelli - P.S. Mr. Cole (1996) [FLAC]\09 - Smile.wav

Pre-gap length 0:00:02.13

Peak level 87.8 %
Track quality 100.0 %
Test CRC 1445AF39
Copy CRC 1445AF39
Copy OK

Track 10
Filename D:\music\rip\John Pizzarelli - P.S. Mr. Cole (1996) [FLAC]\10 - Tenderly.wav

Pre-gap length 0:00:01.89

Peak level 98.8 %
Track quality 100.0 %
Test CRC FD1DB1C5
Copy CRC FD1DB1C5
Copy OK

Track 11
Filename D:\music\rip\John Pizzarelli - P.S. Mr. Cole (1996) [FLAC]\11 - I Was A Little Too Lonely.wav

Pre-gap length 0:00:02.40

Peak level 98.8 %
Track quality 100.0 %
Test CRC 5BE796A3
Copy CRC 5BE796A3
Copy OK

Track 12
Filename D:\music\rip\John Pizzarelli - P.S. Mr. Cole (1996) [FLAC]\12 - I'm An Errand Boy For Rhythm.wav

Pre-gap length 0:00:02.10

Peak level 98.8 %
Track quality 100.0 %
Test CRC C095179C
Copy CRC C095179C
Copy OK

Track 13
Filename D:\music\rip\John Pizzarelli - P.S. Mr. Cole (1996) [FLAC]\13 - Then I'll Be Tired Of You.wav

Pre-gap length 0:00:02.49

Peak level 98.8 %
Track quality 99.9 %
Test CRC 8FD60653
Copy CRC 8FD60653
Copy OK

Track 14
Filename D:\music\rip\John Pizzarelli - P.S. Mr. Cole (1996) [FLAC]\14 - That's Nat.wav

Pre-gap length 0:00:00.93

Peak level 98.8 %
Track quality 100.0 %
Test CRC F507C5BF
Copy CRC F507C5BF
Copy OK

Track 15
Filename D:\music\rip\John Pizzarelli - P.S. Mr. Cole (1996) [FLAC]\15 - Azure-Te.wav

Pre-gap length 0:00:03.13

Peak level 98.8 %
Track quality 99.9 %
Test CRC B01C2718
Copy CRC B01C2718
Copy OK

Track 16
Filename D:\music\rip\John Pizzarelli - P.S. Mr. Cole (1996) [FLAC]\16 - I Know That You Know.wav

Pre-gap length 0:00:01.97

Peak level 98.8 %
Track quality 100.0 %
Test CRC F118840C
Copy CRC F118840C
Copy OK

Track 17
Filename D:\music\rip\John Pizzarelli - P.S. Mr. Cole (1996) [FLAC]\17 - Embraceable You.wav

Pre-gap length 0:00:02.56

Peak level 89.5 %
Track quality 99.9 %
Test CRC FBFC0742
Copy CRC FBFC0742
Copy OK

Track 18
Filename D:\music\rip\John Pizzarelli - P.S. Mr. Cole (1996) [FLAC]\18 - I Like Jersey Best.wav

Pre-gap length 0:00:00.89

Peak level 71.7 %
Track quality 100.0 %
Test CRC DDABA948
Copy CRC DDABA948
Copy OK

No errors occured


End of status report
[свернуть]

Файл CUE

REM GENRE Jazz
REM DATE 1996
REM DISCID 0F0FB412
REM COMMENT "ExactAudioCopy v0.95b4"
PERFORMER "John Pizzarelli"
TITLE "P.S. Mr. Cole"
FILE "01 - Walkin' My Baby Back Home.wav" WAVE
TRACK 01 AUDIO
TITLE "Walkin' My Baby Back Home"
PERFORMER "John Pizzarelli"
INDEX 01 00:00:00
TRACK 02 AUDIO
TITLE "Candy"
PERFORMER "John Pizzarelli"
INDEX 00 02:27:67
FILE "02 - Candy.wav" WAVE
INDEX 01 00:00:00
TRACK 03 AUDIO
TITLE "Welcome To The Club"
PERFORMER "John Pizzarelli"
INDEX 00 05:30:72
FILE "03 - Welcome To The Club.wav" WAVE
INDEX 01 00:00:00
TRACK 04 AUDIO
TITLE "Indiana"
PERFORMER "John Pizzarelli"
INDEX 00 03:19:18
FILE "04 - Indiana.wav" WAVE
INDEX 01 00:00:00
TRACK 05 AUDIO
TITLE "I Love You For Sentimental Reasons"
PERFORMER "John Pizzarelli"
INDEX 00 03:19:60
FILE "05 - I Love You For Sentimental Reasons.wav" WAVE
INDEX 01 00:00:00
TRACK 06 AUDIO
TITLE "Don't Let It Go To Your Head"
PERFORMER "John Pizzarelli"
INDEX 00 02:50:30
FILE "06 - Don't Let It Go To Your Head.wav" WAVE
INDEX 01 00:00:00
TRACK 07 AUDIO
TITLE "Meet Me At No Special Place"
PERFORMER "John Pizzarelli"
INDEX 00 02:19:55
FILE "07 - Meet Me At No Special Place.wav" WAVE
INDEX 01 00:00:00
TRACK 08 AUDIO
TITLE "The Late Late Show"
PERFORMER "John Pizzarelli"
INDEX 00 03:17:48
FILE "08 - The Late Late Show.wav" WAVE
INDEX 01 00:00:00
TRACK 09 AUDIO
TITLE "Smile"
PERFORMER "John Pizzarelli"
INDEX 00 03:04:08
FILE "09 - Smile.wav" WAVE
INDEX 01 00:00:00
TRACK 10 AUDIO
TITLE "Tenderly"
PERFORMER "John Pizzarelli"
INDEX 00 03:49:70
FILE "10 - Tenderly.wav" WAVE
INDEX 01 00:00:00
TRACK 11 AUDIO
TITLE "I Was A Little Too Lonely"
PERFORMER "John Pizzarelli"
INDEX 00 04:13:48
FILE "11 - I Was A Little Too Lonely.wav" WAVE
INDEX 01 00:00:00
TRACK 12 AUDIO
TITLE "I'm An Errand Boy For Rhythm"
PERFORMER "John Pizzarelli"
INDEX 00 03:24:37
FILE "12 - I'm An Errand Boy For Rhythm.wav" WAVE
INDEX 01 00:00:00
TRACK 13 AUDIO
TITLE "Then I'll Be Tired Of You"
PERFORMER "John Pizzarelli"
INDEX 00 03:31:60
FILE "13 - Then I'll Be Tired Of You.wav" WAVE
INDEX 01 00:00:00
TRACK 14 AUDIO
TITLE "That's Nat"
PERFORMER "John Pizzarelli"
INDEX 00 04:01:33
FILE "14 - That's Nat.wav" WAVE
INDEX 01 00:00:00
TRACK 15 AUDIO
TITLE "Azure-Te"
PERFORMER "John Pizzarelli"
INDEX 00 03:01:17
FILE "15 - Azure-Te.wav" WAVE
INDEX 01 00:00:00
TRACK 16 AUDIO
TITLE "I Know That You Know"
PERFORMER "John Pizzarelli"
INDEX 00 03:49:10
FILE "16 - I Know That You Know.wav" WAVE
INDEX 01 00:00:00
TRACK 17 AUDIO
TITLE "Embraceable You"
PERFORMER "John Pizzarelli"
INDEX 00 03:40:15
FILE "17 - Embraceable You.wav" WAVE
INDEX 01 00:00:00
TRACK 18 AUDIO
TITLE "I Like Jersey Best"
PERFORMER "John Pizzarelli"
INDEX 00 03:26:48
FILE "18 - I Like Jersey Best.wav" WAVE
INDEX 01 00:00:00
[свернуть]

Лог проверки качества

AUDIOCHECKER v2.0 beta (build 457) - by Dester -
~~~~~~~~~~~~~~~~~~~~~~~~~~~~~~~~~~
-=== НЕ РЕДАКТИРУЙТЕ ЭТОТ ФАЙЛ! ===-

Путь: ...\1996 - P.S. Mr.Cole

01 -=- 01 - Walkin' My Baby Back Home.flac -=- CDDA (99%)
02 -=- 02 - Candy.flac -=- CDDA (100%)
03 -=- 03 - Welcome To The Club.flac -=- CDDA (100%)
04 -=- 04 - Indiana.flac -=- CDDA (100%)
05 -=- 05 - I Love You For Sentimental Reasons.flac -=- CDDA (99%)
06 -=- 06 - Don't Let It Go To Your Head.flac -=- CDDA (100%)
07 -=- 07 - Meet Me At No Special Place.flac -=- CDDA (100%)
08 -=- 08 - The Late Late Show.flac -=- CDDA (100%)
09 -=- 09 - Smile.flac -=- CDDA (100%)
10 -=- 10 - Tenderly.flac -=- CDDA (100%)
11 -=- 11 - I Was A Little Too Lonely.flac -=- CDDA (100%)
12 -=- 12 - I'm An Errand Boy For Rhythm.flac -=- CDDA (100%)
13 -=- 13 - Then I'll Be Tired Of You.flac -=- CDDA (100%)
14 -=- 14 - That's Nat.flac -=- CDDA (100%)
15 -=- 15 - Azure-Te.flac -=- CDDA (100%)
16 -=- 16 - I Know That You Know.flac -=- CDDA (100%)
17 -=- 17 - Embraceable You.flac -=- CDDA (100%)
18 -=- 18 - I Like Jersey Best.flac -=- CDDA (100%)

Сводка 99,89% CDDA

209125060
[свернуть]

Скачать John Pizzarelli - P.S. Mr.Cole



password: sergych
[свернуть]
My opinion of release: 10/10
__________________
TAIFUN.Wings of Soul


Последний раз редактировалось sergych, 30.11.2013 в 15:57. Причина: перезаливка, переоформление
Вверх
Пользователь сказал cпасибо:
TAIFUN (24.12.2010)
  #2
Старый 24.12.2010, 12:56
podolsky
Неактивный
Досье
 
Аватар для podolsky
По умолчанию Re: John Pizzarelli - P.S. Mr.Cole

Уважаемый sergych!
Огромное спасибо за Пиццарелли!

Вверх
Пользователь сказал cпасибо:
sergych (24.12.2010)
  #3
Старый 24.12.2010, 20:35
sergych
Координатор
Досье
 
Аватар для sergych
По умолчанию Re: John Pizzarelli - P.S. Mr.Cole

podolsky, спасибо Вам за интерес к прекрасному, на мой взгляд, гитаристу и исполнителю .
Ну и спасибо его папе, за то, что передал сыну свой талант и любовь к джазу.
Жаль, что времени катастрофически не хватает. чтобы поделиться всем имеющимся материалом. Есть "в загашнике" ещё десяток-полтора его альбомов, которые, со временем, появятся и на форуме.
__________________
TAIFUN.Wings of Soul

Вверх
Пользователь сказал cпасибо:
TAIFUN (25.12.2010)
Похожие темы
Тема Автор Раздел Ответов Последнее сообщение
Альбом Bucky and John Pizzarelli - Generations sergych Jazz и Blues 0 14.06.2010 08:08


Метки
1996 , 1999 , funky , jazz , john pizzarelli , p.s. mr.cole , pizzarelli , smooth jazz , swing

Опции темы

Ваши права в разделе
Вы не можете создавать новые темы
Вы не можете отвечать в темах
Вы не можете прикреплять вложения
Вы не можете редактировать свои сообщения

Быстрый переход



Текущее время: 10:53. Часовой пояс GMT +3.
Powered by vBulletin® Version 3.8.10
Copyright ©2000 - 2018, vBulletin Solutions, Inc. Перевод: zCarot
© 2008 - 2018 Taifun With Song
Яндекс.Метрика