TAIFUN With Song
Навигация
Вернуться   TAIFUN With Song > Music (обменник) > Rock > Soft Rock
Расширенный поиск
Soft Rock Это музыкальный стиль, который использует технику рок-н-ролла чтобы достичь более мягкого, более приятного для слуха звука, чтобы такую музыку было приятно слушать, например, на работе или за рулем. Soft rock всегда поется с высокими голосами, если певец мужчина, то он будет петь фальцетом, слова soft rock’а всегда сфокусированы на приятные темы, такие, как любовь, ежедневная жизнь и дружба.

А знаете ли Вы, что...
Влияние скрипки на пауков!
«Если заиграть перед пауками на скрипке, то они выйдут из своих укрытий!»
 
Опции темы

  #1
Старый 07.06.2008, 23:32
sergych
Координатор
Досье
 
Аватар для sergych
Релиз Chris de Burgh - Flying Colours

1988 - Flying Colours



Исполнитель/Artist: Chris De Burgh
Альбом/Album: Flying Colours
Год/Year: 1988
Издатель/Label: A&M Records
Жанр/Genre: Soft Rock / Blues Rock / Pop Rock
Формат/Format: mp3 CBR
Качество/Quality: 320 kbps JStereo
Размер/Size: 123.7 mb
Продолжительность/Length: 00:54:26

сканы в комплекте
тексты песен и обложка внесены в теги треков

Треклист

01 - Sailing Away
02 - Carry Me (Like A Fire In Your Heart)
03 - Tender Hands
04 - A Night On The River
05 - Leather On My Shoes
06 - Suddenly Love
07 - The Simple Truth
08 - Missing You
09 - I'm Not Scared Anymore
10 - Don't Look Back
11 - Just A Word Away
12 - The Risen Lord
13 - The Last Time I Cried
[свернуть]

Скачать Chris De Burgh - Flying Colours (1988)




Password: sergych
[свернуть]


My opinion of release: 10/10

Release info RInfo

Девятый студийник под лейблом A&M Records
__________________
TAIFUN.Wings of Soul


Последний раз редактировалось sergych, 26.02.2017 в 11:34. Причина: перезаливка
Вверх
  #2
Старый 26.02.2017, 11:47
sergych
Координатор
Досье
 
Аватар для sergych
Релиз Re: Chris de Burgh - Flying Colours


1988 - Chris de Burgh - Flying Colours




Исполнитель/Artist: Chris de Burgh
Альбом/Album: Flying Colours
Год/Year: 1988
Жанр/Genre: Soft rock, pop rock, ballad
Страна/Country: Великобритания
Рекорд-лейбл/Record label: A&M Records
Номер в каталоге/Catalogue #: CDA 5224
Формат/Format: Free Lossless Audio Codec (*.flac)
Качество/Quality: Lossless
Тип рипа/RIP Type: image+.cue
Продолжительность/Length: 00:54:26
Источник/Source: Собственный рип
Размер/Size: 345.5 MB

Сканы в комплекте

Треклист

01. Sailing Away [0:05:03.02]
02. Carry Me [0:04:24.45]
03. Tender Hands [0:04:29.55]
04. A Night on the River [0:03:49.20]
05. Leather on my Shoes [0:04:35.20]
06. Suddenly Love [0:03:14.18]
07. The Simple Truth [0:04:27.42]
08. Missing You [0:04:07.05]
09. I'm Not Scared Anymore [0:04:48.48]
10. Don't Look Back [0:02:56.55]
11. Just a Word Away [0:03:17.40]
12. The Risen Lord [0:03:39.55]
13. The Last Time I Cried [0:05:33.02]
[свернуть]

youtube.com

[свернуть]

Исполнители/Performers

Chris de Burgh - vocal
Adrian Lee
Andy Richards
Peter Van Hooke
Phil Palmer
Chris White - saxophone
[свернуть]

EAC лог

Exact Audio Copy V1.2 from 12. August 2016

EAC extraction logfile from 24. February 2017, 16:04

Chris De Burgh / Flying Colours

Used drive : PLEXTOR DVDR PX-716A Adapter: 1 ID: 0

Read mode : Secure
Utilize accurate stream : Yes
Defeat audio cache : Yes
Make use of C2 pointers : No

Read offset correction : 30
Overread into Lead-In and Lead-Out : No
Fill up missing offset samples with silence : Yes
Delete leading and trailing silent blocks : No
Null samples used in CRC calculations : Yes
Used interface : Native Win32 interface for Win NT & 2000

Used output format : User Defined Encoder
Selected bitrate : 1024 kBit/s
Quality : High
Add ID3 tag : No
Command line compressor : C:\Program Files (x86)\Exact Audio Copy\FLAC\FLAC.EXE
Additional command line options : -6 -V -T "ARTIST=%artist%" -T "TITLE=%title%" -T "ALBUM=%albumtitle%" -T "DATE=%year%" -T "TRACKNUMBER=%tracknr%" -T "GENRE=%genre%" -T "COMMENT=%comment%" -T "BAND=%albuminterpret%" -T "ALBUMARTIST=%albuminterpret%" -T "COMPOSER=%composer%" %haslyrics%--tag-from-file=LYRICS="%lyricsfile%"%haslyrics% -T "DISCNUMBER=%cdnumber%" -T "TOTALDISCS=%totalcds%" -T "TOTALTRACKS=%numtracks%" %hascover%--picture="%coverfile%"%hascover% %source% -o %dest%


TOC of the extracted CD

Track | Start | Length | Start sector | End sector
---------------------------------------------------------
1 | 0:00.55 | 5:03.02 | 55 | 22781
2 | 5:03.57 | 4:24.45 | 22782 | 42626
3 | 9:28.27 | 4:29.55 | 42627 | 62856
4 | 13:58.07 | 3:49.20 | 62857 | 80051
5 | 17:47.27 | 4:35.20 | 80052 | 100696
6 | 22:22.47 | 3:14.18 | 100697 | 115264
7 | 25:36.65 | 4:27.42 | 115265 | 135331
8 | 30:04.32 | 4:07.05 | 135332 | 153861
9 | 34:11.37 | 4:48.48 | 153862 | 175509
10 | 39:00.10 | 2:56.55 | 175510 | 188764
11 | 41:56.65 | 3:17.40 | 188765 | 203579
12 | 45:14.30 | 3:39.55 | 203580 | 220059
13 | 48:54.10 | 5:33.02 | 220060 | 245036


Range status and errors

Selected range

Filename C:\mm\Chris De Burgh\1988 - Flying Colours [CDA 5224]\Chris De Burgh - Flying Colours.wav

Peak level 100.0 %
Extraction speed 10.2 X
Range quality 100.0 %
Test CRC 6918D75A
Copy CRC 6918D75A
Copy OK

No errors occurred


AccurateRip summary

Track 1 accurately ripped (confidence 28) [DBD5E57C] (AR v2)
Track 2 accurately ripped (confidence 28) [7F48CFF2] (AR v2)
Track 3 accurately ripped (confidence 28) [5B9783F4] (AR v2)
Track 4 accurately ripped (confidence 28) [080B4302] (AR v2)
Track 5 accurately ripped (confidence 28) [DB1ED200] (AR v2)
Track 6 accurately ripped (confidence 28) [94D6775A] (AR v2)
Track 7 accurately ripped (confidence 28) [7CAF2E8F] (AR v2)
Track 8 accurately ripped (confidence 28) [FA4567DB] (AR v2)
Track 9 accurately ripped (confidence 27) [E5A6D2FD] (AR v2)
Track 10 accurately ripped (confidence 28) [70D55FEB] (AR v2)
Track 11 accurately ripped (confidence 28) [7F787DA0] (AR v2)
Track 12 accurately ripped (confidence 28) [51BA5B8E] (AR v2)
Track 13 accurately ripped (confidence 29) [F107E593] (AR v2)

All tracks accurately ripped

End of status report

---- CUETools DB Plugin V2.1.6

[CTDB TOCID: FWDqd8f9m_Kq.GYnoY51CQZi8dQ-] found
Submit result: FWDqd8f9m_Kq.GYnoY51CQZi8dQ- has been confirmed
Track | CTDB Status
1 | (36/36) Accurately ripped
2 | (36/36) Accurately ripped
3 | (36/36) Accurately ripped
4 | (35/36) Accurately ripped
5 | (36/36) Accurately ripped
6 | (36/36) Accurately ripped
7 | (36/36) Accurately ripped
8 | (36/36) Accurately ripped
9 | (36/36) Accurately ripped
10 | (35/36) Accurately ripped
11 | (36/36) Accurately ripped
12 | (35/36) Accurately ripped
13 | (36/36) Accurately ripped
[свернуть]

Файл CUE

REM GENRE Pop
REM DATE 1988
REM DISCID A70CC30D
REM COMMENT "ExactAudioCopy v1.2"
PERFORMER "Chris De Burgh"
TITLE "Flying Colours"
REM COMPOSER ""
FILE "Chris De Burgh - Flying Colours.flac" WAVE
TRACK 01 AUDIO
TITLE "Sailing Away"
PERFORMER "Chris De Burgh"
REM COMPOSER ""
INDEX 00 00:00:00
INDEX 01 00:00:55
TRACK 02 AUDIO
TITLE "Carry Me"
PERFORMER "Chris De Burgh"
REM COMPOSER ""
INDEX 00 05:02:15
INDEX 01 05:03:57
TRACK 03 AUDIO
TITLE "Tender Hands"
PERFORMER "Chris De Burgh"
REM COMPOSER ""
INDEX 00 09:27:55
INDEX 01 09:28:27
TRACK 04 AUDIO
TITLE "A Night on the River"
PERFORMER "Chris De Burgh"
REM COMPOSER ""
INDEX 00 13:57:35
INDEX 01 13:58:07
TRACK 05 AUDIO
TITLE "Leather on my Shoes"
PERFORMER "Chris De Burgh"
REM COMPOSER ""
INDEX 00 17:46:27
INDEX 01 17:47:27
TRACK 06 AUDIO
TITLE "Suddenly Love"
PERFORMER "Chris De Burgh"
REM COMPOSER ""
INDEX 00 22:21:72
INDEX 01 22:22:47
TRACK 07 AUDIO
TITLE "The Simple Truth"
PERFORMER "Chris De Burgh"
REM COMPOSER ""
INDEX 00 25:35:00
INDEX 01 25:36:65
TRACK 08 AUDIO
TITLE "Missing You"
PERFORMER "Chris De Burgh"
REM COMPOSER ""
INDEX 00 30:03:10
INDEX 01 30:04:32
TRACK 09 AUDIO
TITLE "I'm Not Scared Anymore"
PERFORMER "Chris De Burgh"
REM COMPOSER ""
INDEX 00 34:11:27
INDEX 01 34:11:37
TRACK 10 AUDIO
TITLE "Don't Look Back"
PERFORMER "Chris De Burgh"
REM COMPOSER ""
INDEX 00 38:58:42
INDEX 01 39:00:10
TRACK 11 AUDIO
TITLE "Just a Word Away"
PERFORMER "Chris De Burgh"
REM COMPOSER ""
INDEX 00 41:55:40
INDEX 01 41:56:65
TRACK 12 AUDIO
TITLE "The Risen Lord"
PERFORMER "Chris De Burgh"
REM COMPOSER ""
INDEX 00 45:14:07
INDEX 01 45:14:30
TRACK 13 AUDIO
TITLE "The Last Time I Cried"
PERFORMER "Chris De Burgh"
REM COMPOSER ""
INDEX 00 48:54:02
INDEX 01 48:54:10
[свернуть]

Лог проверки качества

AUDIOCHECKER v2.0 beta (build 457) - by Dester -
~~~~~~~~~~~~~~~~~~~~~~~~~~~~~~~~~~
-=== НЕ РЕДАКТИРУЙТЕ ЭТОТ ФАЙЛ! ===-

Путь: ...\1988 - Flying Colours [CDA 5224]

1 -=- Chris De Burgh - Flying Colours.flac -=- MPEG (95%)

166171524
[свернуть]

Спектр частот

[свернуть]

Скачать Chris de Burgh - Flying Colours



password: sergych
[свернуть]

Контрольная сумма (хеш-сумма) архива

MD5: 11d24e5cc3fd290a5d9770d00aaf9742
[свернуть]
My opinion of release: 10/10
__________________
TAIFUN.Wings of Soul

Вверх
3 пользователя(ей) сказали cпасибо:
Показать список поблагодаривших
  #3
Старый 26.02.2017, 13:01
johnsilver
Меломан
Досье
 
Аватар для johnsilver
По умолчанию Re: Chris de Burgh - Flying Colours

Что то не то с паролем, не извлекается архив, два раза скачивал. Проверьте, пожалуйста.

Вверх
Пользователь сказал cпасибо:
sergych (26.02.2017)
  #4
Старый 26.02.2017, 16:11
sergych
Координатор
Досье
 
Аватар для sergych
По умолчанию Re: Chris de Burgh - Flying Colours

johnsilver, спасибо, мой косяк. Перезалил
__________________
TAIFUN.Wings of Soul

Вверх
2 пользователя(ей) сказали cпасибо:
johnsilver (26.02.2017), swint68 (26.02.2017)
Похожие темы
Тема Автор Раздел Ответов Последнее сообщение
Альбом Chris de Burgh - At The End Of A Perfect Day sergych Soft Rock 0 23.08.2013 09:29
Альбом Chris de Burgh - The Getaway sergych Soft Rock 1 21.08.2013 17:05
Сборник Chris de Burgh - Best Moves sergych Soft Rock 0 12.02.2011 09:36
Альбом Chris de Burgh - Now And Then sergych Soft Rock 0 07.06.2008 23:32
Альбом Chris de Burgh - This Way Up sergych Soft Rock 0 07.06.2008 23:32


Метки
1988 , ballad , blues rock , chris de burgh , flying colours , pop rock , soft rock

Опции темы

Ваши права в разделе
Вы не можете создавать новые темы
Вы не можете отвечать в темах
Вы не можете прикреплять вложения
Вы не можете редактировать свои сообщения

Быстрый переход



Текущее время: 00:56. Часовой пояс GMT +3.
Powered by vBulletin® Version 3.8.10
Copyright ©2000 - 2018, vBulletin Solutions, Inc. Перевод: zCarot
© 2008 - 2018 Taifun With Song
Яндекс.Метрика