TAIFUN With Song
Навигация
Вернуться   TAIFUN With Song > Music (обменник) > Rock > Soft Rock
Расширенный поиск
Soft Rock Это музыкальный стиль, который использует технику рок-н-ролла чтобы достичь более мягкого, более приятного для слуха звука, чтобы такую музыку было приятно слушать, например, на работе или за рулем. Soft rock всегда поется с высокими голосами, если певец мужчина, то он будет петь фальцетом, слова soft rock’а всегда сфокусированы на приятные темы, такие, как любовь, ежедневная жизнь и дружба.

А знаете ли Вы, что...
Какой музыкант одобрил пытки заключённых в Гуантанамо своей музыкой?
«Для пыток заключённых в американской тюрьме на базе Гуантанамо нередко применяли композиции группы Metallica. Вокалист группы Джеймс Хэтфилд в интервью заявил, что не против такого использования музыки: «Мы мучили своих родителей и жён нашей музыкой много лет. Почему бы и не иракцев?».»
 
Опции темы

  #1
Старый 20.07.2017, 19:31
sergych
Координатор
Досье
 
Аватар для sergych
Релиз Chris de Burgh - Quiet Revolution


1999 - Chris de Burgh - Quiet Revolution




Исполнитель/Artist: Chris De Burgh
Альбом/Album: Quiet Revolution
Год/Year: 1999
Жанр/Genre: Soft Rock, Pop Rock, Adult contemporary
Страна/Country: Великобритания
Рекорд-лейбл/Record label: A&M Records
Номер в каталоге/Catalogue #: 490 446-2
Формат/Format: Free Lossless Audio Codec (*.flac)
Качество/Quality: Lossless
Тип рипа/RIP Type: image+.cue
Продолжительность/Length: 01:02:58
Источник/Source: Собственный рип
Размер/Size: 489.5 MB

Сканы в комплекте

Треклист

01. When I Think Of You [0:03:25.10]
02. Love Of The Heart Divine [0:04:56.20]
03. Living In The World [0:04:46.15]
04. The Same Sun [0:05:03.03]
05. Nothing Ever Happens Round Here [0:03:37.22]
06. A Woman's Heart [0:04:51.68]
07. The Last Moments Of The Dawn [0:03:20.27]
08. I See You Everywhere [0:04:02.45]
09. Saint Peter's Gate [0:05:05.15]
10. You Look Beautiful [0:03:41.50]
11. I Want It (And I Want It Now) [0:04:17.00]
12. Natasha Dance [0:03:54.55]
13. The Rivers Of Abraham [0:04:05.35]
14. My Lover Is [0:03:22.08]
15. Quiet Revolution [0:04:29.32]
[свернуть]

youtube.com

[свернуть]

Исполнители/Performers

Chris de Burgh - vocals
Chris Porter, Derek Green, Katie Kissoon, Tommy Blaize - background vocals
Chris Cameron, Richard Hewson - string arrangements
Andy Duncan - percussion, drum programming
Tony Kiley - drums
David Levy, John Giblin - bass
Gavyn Wright, Peter Oxendale - orchestral agent
Neil Taylor, Phil Palmer - guitar
J. Neil Sidwell, Steve Sidwell - brass
Pete Gordeno - keyboards
[свернуть]

EAC лог

Exact Audio Copy V1.3 from 2. September 2016

EAC extraction logfile from 8. July 2017, 21:38

Chris de Burgh / Quiet Revolution

Used drive : PLEXTOR DVDR PX-716A Adapter: 1 ID: 0

Read mode : Secure
Utilize accurate stream : Yes
Defeat audio cache : Yes
Make use of C2 pointers : No

Read offset correction : 30
Overread into Lead-In and Lead-Out : No
Fill up missing offset samples with silence : Yes
Delete leading and trailing silent blocks : No
Null samples used in CRC calculations : Yes
Used interface : Installed external ASPI interface

Used output format : User Defined Encoder
Selected bitrate : 1024 kBit/s
Quality : High
Add ID3 tag : No
Command line compressor : C:\Program Files (x86)\Exact Audio Copy\Flac\flac.exe
Additional command line options : -6 -V -T "ARTIST=%artist%" -T "TITLE=%title%" -T "ALBUM=%albumtitle%" -T "DATE=%year%" -T "TRACKNUMBER=%tracknr%" -T "GENRE=%genre%" -T "COMMENT=%comment%" -T "BAND=%albuminterpret%" -T "ALBUMARTIST=%albuminterpret%" -T "COMPOSER=%composer%" %haslyrics%--tag-from-file=LYRICS="%lyricsfile%"%haslyrics% -T "DISCNUMBER=%cdnumber%" -T "TOTALDISCS=%totalcds%" -T "TOTALTRACKS=%numtracks%" %hascover%--picture="%coverfile%"%hascover% %source% -o %dest%


TOC of the extracted CD

Track | Start | Length | Start sector | End sector
---------------------------------------------------------
1 | 0:00.00 | 3:25.10 | 0 | 15384
2 | 3:25.10 | 4:56.20 | 15385 | 37604
3 | 8:21.30 | 4:46.15 | 37605 | 59069
4 | 13:07.45 | 5:03.03 | 59070 | 81797
5 | 18:10.48 | 3:37.22 | 81798 | 98094
6 | 21:47.70 | 4:51.68 | 98095 | 119987
7 | 26:39.63 | 3:20.27 | 119988 | 135014
8 | 30:00.15 | 4:02.45 | 135015 | 153209
9 | 34:02.60 | 5:05.15 | 153210 | 176099
10 | 39:08.00 | 3:41.50 | 176100 | 192724
11 | 42:49.50 | 4:17.00 | 192725 | 211999
12 | 47:06.50 | 3:54.55 | 212000 | 229604
13 | 51:01.30 | 4:05.35 | 229605 | 248014
14 | 55:06.65 | 3:22.08 | 248015 | 263172
15 | 58:28.73 | 4:29.32 | 263173 | 283379


Range status and errors

Selected range

Filename C:\mm\Chris De Burgh\1999 - Quiet Revolution [490 446-2]\Chris de Burgh - Quiet Revolution.wav

Peak level 99.6 %
Extraction speed 3.8 X
Range quality 100.0 %
Test CRC E0721BC6
Copy CRC E0721BC6
Copy OK

No errors occurred

End of status report

---- CUETools DB Plugin V2.1.6

[CTDB TOCID: M_pqPEFOQqOczDyHBs07Blq_WG8-] found
Submit result: M_pqPEFOQqOczDyHBs07Blq_WG8- has been confirmed
Track | CTDB Status
1 | (82/86) Accurately ripped, or (2/86) differs in 8 samples @00:36:49
2 | (84/86) Accurately ripped
3 | (86/86) Accurately ripped
4 | (85/86) Accurately ripped
5 | (85/86) Accurately ripped
6 | (85/86) Accurately ripped
7 | (84/86) Accurately ripped
8 | (86/86) Accurately ripped
9 | (85/86) Accurately ripped
10 | (84/86) Accurately ripped
11 | (86/86) Accurately ripped
12 | (85/86) Accurately ripped
13 | (85/86) Accurately ripped
14 | (84/86) Accurately ripped
15 | (84/86) Accurately ripped
[свернуть]

Файл CUE

REM GENRE Pop
REM DATE 1999
REM DISCID B10EC20F
REM COMMENT "ExactAudioCopy v1.3"
PERFORMER "Chris de Burgh"
TITLE "Quiet Revolution"
REM COMPOSER ""
FILE "Chris de Burgh - Quiet Revolution.flac" WAVE
TRACK 01 AUDIO
TITLE "When I Think Of You"
PERFORMER "Chris de Burgh"
REM COMPOSER ""
INDEX 01 00:00:00
TRACK 02 AUDIO
TITLE "Love Of The Heart Divine"
PERFORMER "Chris de Burgh"
REM COMPOSER ""
INDEX 01 03:25:10
TRACK 03 AUDIO
TITLE "Living In The World"
PERFORMER "Chris de Burgh"
REM COMPOSER ""
INDEX 01 08:21:30
TRACK 04 AUDIO
TITLE "The Same Sun"
PERFORMER "Chris de Burgh"
REM COMPOSER ""
INDEX 01 13:07:45
TRACK 05 AUDIO
TITLE "Nothing Ever Happens Round Here"
PERFORMER "Chris de Burgh"
REM COMPOSER ""
INDEX 01 18:10:48
TRACK 06 AUDIO
TITLE "A Woman's Heart"
PERFORMER "Chris de Burgh"
REM COMPOSER ""
INDEX 01 21:47:70
TRACK 07 AUDIO
TITLE "The Last Moments Of The Dawn"
PERFORMER "Chris de Burgh"
REM COMPOSER ""
INDEX 01 26:39:63
TRACK 08 AUDIO
TITLE "I See You Everywhere"
PERFORMER "Chris de Burgh"
REM COMPOSER ""
INDEX 01 30:00:15
TRACK 09 AUDIO
TITLE "Saint Peter's Gate"
PERFORMER "Chris de Burgh"
REM COMPOSER ""
INDEX 01 34:02:60
TRACK 10 AUDIO
TITLE "You Look Beautiful"
PERFORMER "Chris de Burgh"
REM COMPOSER ""
INDEX 01 39:08:00
TRACK 11 AUDIO
TITLE "I Want It (And I Want It Now)"
PERFORMER "Chris de Burgh"
REM COMPOSER ""
INDEX 01 42:49:50
TRACK 12 AUDIO
TITLE "Natasha Dance"
PERFORMER "Chris de Burgh"
REM COMPOSER ""
INDEX 01 47:06:50
TRACK 13 AUDIO
TITLE "The Rivers Of Abraham"
PERFORMER "Chris de Burgh"
REM COMPOSER ""
INDEX 01 51:01:30
TRACK 14 AUDIO
TITLE "My Lover Is"
PERFORMER "Chris de Burgh"
REM COMPOSER ""
INDEX 01 55:06:65
TRACK 15 AUDIO
TITLE "Quiet Revolution"
PERFORMER "Chris de Burgh"
REM COMPOSER ""
INDEX 01 58:28:73
[свернуть]

Лог проверки качества

AUDIOCHECKER v2.0 beta (build 457) - by Dester -
~~~~~~~~~~~~~~~~~~~~~~~~~~~~~~~~~~
-=== НЕ РЕДАКТИРУЙТЕ ЭТОТ ФАЙЛ! ===-

Путь: ...\1999 - Quiet Revolution [490 446-2]

1 -=- Chris de Burgh - Quiet Revolution.flac -=- CDDA (100%)

157584116
[свернуть]

Спектр частот

[свернуть]

Скачать Chris de Burgh - Quiet Revolution



password: sergych
[свернуть]

Контрольная сумма (хеш-сумма) архива

MD5: d0ab3fdd24c13cb30ac802018d13c640
[свернуть]
My opinion of release: 10/10
__________________
TAIFUN.Wings of Soul

Вверх
2 пользователя(ей) сказали cпасибо:
johnsilver (20.07.2017), swint68 (20.07.2017)
Похожие темы
Тема Автор Раздел Ответов Последнее сообщение
Альбом Chris de Burgh - The Getaway sergych Soft Rock 0 29.03.2017 19:59
Релиз Chris De Burgh - Home PUPOKIN Soft Rock 0 11.10.2012 08:29
Альбом Chris de Burgh - Now And Then sergych Soft Rock 0 07.06.2008 23:32
Альбом Chris de Burgh - Man On The Line sergych Soft Rock 0 07.06.2008 23:32
Альбом Chris de Burgh - This Way Up sergych Soft Rock 0 07.06.2008 23:32


Метки
1999 , adult contemporary , chris de burgh , pop rock , quiet revolution , soft rock

Опции темы

Ваши права в разделе
Вы не можете создавать новые темы
Вы не можете отвечать в темах
Вы не можете прикреплять вложения
Вы не можете редактировать свои сообщения

Быстрый переход



Текущее время: 11:51. Часовой пояс GMT +3.
Powered by vBulletin® Version 3.8.10
Copyright ©2000 - 2018, vBulletin Solutions, Inc. Перевод: zCarot
© 2008 - 2018 Taifun With Song
Яндекс.Метрика