TAIFUN With Song
Навигация
Вернуться   TAIFUN With Song > Music (обменник) > Другие направления музыки > R&B
Расширенный поиск
R&B Ссылки на музыку в этом стиле

А знаете ли Вы, что...
Каким образом проводятся бесшумные дискотеки?
«С 2000 года всё большую популярность набирают бесшумные дискотеки — особенно там, где после определённого часа действуют запреты на громкую музыку. Каждому их участнику выдаются специальные наушники, на которые транслируется аудиосигнал по беспроводной связи, то есть наблюдатель со стороны увидит только толпу танцующих в тишине людей. Часто в таком формате на одной площадке работают сразу несколько диджеев или исполняющих живую музыку групп, конкурирующих за внимание публики, наушники которой снабжены функцией переключения сигналов.»
 
Опции темы

  #1
Старый 27.11.2015, 18:02
sergych
Координатор
Досье
 
Аватар для sergych
Релиз Boyz II Men - The Remix Collection


1995 - Boyz II Men - The Remix Collection




Исполнитель/Artist: Boyz II Men
Альбом/Album: The Remix Collection
Год/Year: 1995
Жанр/Genre: R&B, pop, soul, hip hop
Страна/Country: Соединённые Штаты
Рекорд-лейбл/Record label: Motown Records
Номер в каталоге/Catalogue #: 314530584-2
Формат/Format: Free Lossless Audio Codec (*.flac)
Качество/Quality: Lossless
Тип рипа/RIP Type: image+.cue
Продолжительность/Length: 00:48:39
Источник/Source: Собственный рип
Размер/Size: 386.1 MB

Сканы в комплекте

Треклист

01. Countdown Interlude - Under Pressure - Sympin' Interlude [0:04:03.47]
02. Vibin' (feat. Treach, Craig Mack, Busta Rhymes, Method Man) [0:04:02.65]
03. I Remember (Motownphilly Interlude) [0:04:27.10]
04. Water Runs Dry [0:04:45.70]
05. U Know [0:04:39.63]
06. Hey Lover (feat. LL Cool J) [0:03:57.27]
07. I'll Make Love To You (Motownphilly Interlude) [0:04:56.40]
08. Uhh Ahh [0:04:30.55]
09. Motownphilly [0:04:03.23]
10. On Bended Knee [0:04:15.07]
11. Brokenhearted (Wanya Morris with Brandy) [0:04:56.15]
[свернуть]

youtube.com

[свернуть]

EAC лог

Exact Audio Copy V1.1 from 23. June 2015

EAC extraction logfile from 13. November 2015, 22:38

Boyz II Men / The Remix Collection

Used drive : ATAPI iHAS124 D Adapter: 0 ID: 2

Read mode : Secure
Utilize accurate stream : Yes
Defeat audio cache : Yes
Make use of C2 pointers : No

Read offset correction : 6
Overread into Lead-In and Lead-Out : No
Fill up missing offset samples with silence : Yes
Delete leading and trailing silent blocks : No
Null samples used in CRC calculations : Yes
Used interface : Installed external ASPI interface

Used output format : User Defined Encoder
Selected bitrate : 1024 kBit/s
Quality : High
Add ID3 tag : Yes
Command line compressor : C:\Program Files (x86)\Exact Audio Copy\Flac\flac.exe
Additional command line options : -6 -V -T "ARTIST=%artist%" -T "TITLE=%title%" -T "ALBUM=%albumtitle%" -T "DATE=%year%" -T "TRACKNUMBER=%tracknr%" -T "GENRE=%genre%" -T "COMMENT=%comment%" -T "BAND=%albuminterpret%" -T "COMPOSER=%composer%" %haslyrics%--tag-from-file=LYRICS="%lyricsfile%"%haslyrics% -T "DISCNUMBER=%cdnumber%" -T "TOTALDISCS=%totalcds%" -T "TOTALTRACKS=%numtracks%" %hascover%--picture="%coverfile%"%hascover% %source% -o %dest%


TOC of the extracted CD

Track | Start | Length | Start sector | End sector
---------------------------------------------------------
1 | 0:00.00 | 4:03.47 | 0 | 18271
2 | 4:03.47 | 4:02.65 | 18272 | 36486
3 | 8:06.37 | 4:27.10 | 36487 | 56521
4 | 12:33.47 | 4:45.70 | 56522 | 77966
5 | 17:19.42 | 4:39.63 | 77967 | 98954
6 | 21:59.30 | 3:57.27 | 98955 | 116756
7 | 25:56.57 | 4:56.40 | 116757 | 138996
8 | 30:53.22 | 4:30.55 | 138997 | 159301
9 | 35:24.02 | 4:03.23 | 159302 | 177549
10 | 39:27.25 | 4:15.07 | 177550 | 196681
11 | 43:42.32 | 4:56.15 | 196682 | 218896


Range status and errors

Selected range

Filename C:\mm\Boyz II Men\1995 - The Remix Collection [314530584-2]\Boyz II Men - The Remix Collection.wav

Peak level 97.9 %
Extraction speed 8.4 X
Range quality 99.9 %
Test CRC 6F044044
Copy CRC 6F044044
Copy OK

No errors occurred


AccurateRip summary

Track 1 accurately ripped (confidence 17) [39AB9FA5] (AR v2)
Track 2 accurately ripped (confidence 18) [F6DB2EAB] (AR v2)
Track 3 accurately ripped (confidence 18) [F23C8BC8] (AR v2)
Track 4 accurately ripped (confidence 18) [FDEC49ED] (AR v2)
Track 5 accurately ripped (confidence 18) [C73667D1] (AR v2)
Track 6 accurately ripped (confidence 18) [BBD44DD9] (AR v2)
Track 7 accurately ripped (confidence 18) [312EFDFB] (AR v2)
Track 8 accurately ripped (confidence 18) [76F19F94] (AR v2)
Track 9 accurately ripped (confidence 18) [A92C53B7] (AR v2)
Track 10 accurately ripped (confidence 18) [F57BE425] (AR v2)
Track 11 accurately ripped (confidence 18) [820F9B33] (AR v2)

All tracks accurately ripped

End of status report
[свернуть]

Файл CUE

REM GENRE R&B
REM DATE 1995
REM DISCID 920B660B
REM COMMENT "ExactAudioCopy v1.1"
PERFORMER "Boyz II Men"
TITLE "The Remix Collection"
FILE "Boyz II Men - The Remix Collection.flac" WAVE
TRACK 01 AUDIO
TITLE "Countdown Interlude - Under Pressure - Sympin' Interlude"
PERFORMER "Boyz II Men"
INDEX 01 00:00:00
TRACK 02 AUDIO
TITLE "Vibin' (feat. Treach, Craig Mack, Busta Rhymes, Method Man)"
PERFORMER "Boyz II Men"
INDEX 01 04:03:47
TRACK 03 AUDIO
TITLE "I Remember (Motownphilly Interlude)"
PERFORMER "Boyz II Men"
INDEX 01 08:06:37
TRACK 04 AUDIO
TITLE "Water Runs Dry"
PERFORMER "Boyz II Men"
INDEX 01 12:33:47
TRACK 05 AUDIO
TITLE "U Know"
PERFORMER "Boyz II Men"
INDEX 01 17:19:42
TRACK 06 AUDIO
TITLE "Hey Lover (feat. LL Cool J)"
PERFORMER "Boyz II Men"
INDEX 01 21:59:30
TRACK 07 AUDIO
TITLE "I'll Make Love To You (Motownphilly Interlude)"
PERFORMER "Boyz II Men"
INDEX 01 25:56:57
TRACK 08 AUDIO
TITLE "Uhh Ahh"
PERFORMER "Boyz II Men"
INDEX 01 30:53:22
TRACK 09 AUDIO
TITLE "Motownphilly"
PERFORMER "Boyz II Men"
INDEX 01 35:24:02
TRACK 10 AUDIO
TITLE "On Bended Knee"
PERFORMER "Boyz II Men"
INDEX 01 39:27:25
TRACK 11 AUDIO
TITLE "Brokenhearted (Wanya Morris with Brandy)"
PERFORMER "Boyz II Men"
INDEX 01 43:42:32
[свернуть]

Лог проверки качества

AUDIOCHECKER v2.0 beta (build 457) - by Dester -
~~~~~~~~~~~~~~~~~~~~~~~~~~~~~~~~~~
-=== НЕ РЕДАКТИРУЙТЕ ЭТОТ ФАЙЛ! ===-

Путь: ...\1995 - The Remix Collection [314530584-2]

1 -=- Boyz II Men - The Remix Collection.flac -=- CDDA (100%)

86040244
[свернуть]

Спектр частот

[свернуть]

Скачать Boyz II Men - The Remix Collection



password: sergych
[свернуть]
My opinion of release: 9/10
__________________
TAIFUN.Wings of Soul

Вверх
2 пользователя(ей) сказали cпасибо:
alexandro (25.12.2015), Dmitri (27.11.2015)
  #2
Старый 30.12.2015, 21:33
sergych
Координатор
Досье
 
Аватар для sergych
Релиз Re: Boyz II Men - The Remix Collection


1995 - Boyz II Men - The Remix Collection




Исполнитель/Artist: Boyz II Men
Альбом/Album: The Remix Collection
Год/Year: 1995
Жанр/Genre: R&B, pop, soul, hip hop
Страна/Country: Япония
Рекорд-лейбл/Record label: Motown Records / Polydor K.K.
Номер в каталоге/Catalogue #: POCT-1073
Формат/Format: Free Lossless Audio Codec (*.flac)
Качество/Quality: Lossless
Тип рипа/RIP Type: image+.cue
Продолжительность/Length: 00:54:01
Источник/Source: Собственный рип
Размер/Size: 516.7 MB

Сканы в комплекте

Треклист

CD1
CD2
[свернуть]

youtube.com

[свернуть]

EAC лог

CD1
CD2
[свернуть]

Файл CUE

CD1
CD2
[свернуть]

Лог проверки качества

AUDIOCHECKER v2.0 beta (build 457) - by Dester -
~~~~~~~~~~~~~~~~~~~~~~~~~~~~~~~~~~
-=== НЕ РЕДАКТИРУЙТЕ ЭТОТ ФАЙЛ! ===-

Путь: ...\1995 - The Remix Collection [POCT-1073]__

1 -=- Boyz II Men - Thank You (LP Version) [PODT-9901].flac -=- CDDA (100%)
2 -=- Boyz II Men - The Remix Collection.flac -=- CDDA (100%)

Сводка 100,00% CDDA

194958388
[свернуть]

Спектр частот


[свернуть]

Скачать Boyz II Men - The Remix Collection



password: sergych
[свернуть]
My opinion of release: 10/10

Release info RInfo

Японское издание, отличающееся от американского изменённым трек-листом и дополненное мини-диском с синглом Thank You (LP Version) [PODT-9901]
__________________
TAIFUN.Wings of Soul

Вверх
Пользователь сказал cпасибо:
alexandro (31.12.2015)
Похожие темы
Тема Автор Раздел Ответов Последнее сообщение
Альбом Boyz II Men – II sergych R&B 1 22.11.2013 22:18
Сборник Boyz II Men – The Christmas Collection sergych R&B 0 10.11.2013 20:26
Boyz II Men sergych R&B [FAQ] 0 06.07.2008 09:24
TC - Drink (Xample remix) / Wheres My Money (Clipz remix) DarkDan Drum & Bass 0 27.04.2008 17:09
Dillinja - Grimey (Clipz Remix) / Sky (Zero Tolerance Remix) DarkDan Drum & Bass 0 23.04.2008 14:19


Метки
1995 , boyz ii men , hip hop , pop , r&b , soul , the remix collection

Опции темы

Ваши права в разделе
Вы не можете создавать новые темы
Вы не можете отвечать в темах
Вы не можете прикреплять вложения
Вы не можете редактировать свои сообщения

Быстрый переход



Текущее время: 00:14. Часовой пояс GMT +3.
Powered by vBulletin® Version 3.8.10
Copyright ©2000 - 2018, vBulletin Solutions, Inc. Перевод: zCarot
© 2008 - 2018 Taifun With Song
Яндекс.Метрика