TAIFUN With Song
Навигация
R&B Ссылки на музыку в этом стиле

А знаете ли Вы, что...
Где собачий вальс зовут ослиным маршем, а где — кошачьей полькой?
«Собачий вальс в разных странах называется по-разному. В Германии, Бельгии, Нидерландах — блошиный вальс. В Болгарии — кошачий марш, а в Финляндии — кошачья полька. В Венгрии — ослиный марш, а во Франции его почему-то называют отбивной котлетой.»
 
Опции темы

  #1
Старый 09.12.2014, 17:18
sergych
Координатор
Досье
 
Аватар для sergych
Релиз Stevie Wonder - A Time To Love


2005 - Stevie Wonder - A Time To Love




Исполнитель/Artist: Stevie Wonder
Альбом/Album: A Time To Love
Год/Year: 2005
Жанр/Genre: Pop, R&B, soul
Страна/Country: Германия
Рекорд-лейбл/Record label: Motown Records
Номер в каталоге/Catalogue #: 602498621882
Формат/Format: Free Lossless Audio Codec (*.flac)
Качество/Quality: Lossless
Тип рипа/RIP Type: image+.cue
Продолжительность/Length: 01:17:41
Источник/Source: Собственный рип
Размер/Size: 607.1 MB

Сканы в комплекте

Треклист

01. If Your Love Cannot Be Moved (feat. Kim Burrell) [0:06:11.58]
02. Sweetest Somebody I Know [0:04:31.20]
03. Moon Blue [0:06:44.66]
04. From The Bottom Of My Heart [0:05:11.67]
05. Please Don't Hurt My Baby [0:04:40.33]
06. How Will I Know (feat. Aisha Morris) [0:03:39.15]
07. My Love Is On Fire (feat. Hubert Laws on flute) [0:06:16.12]
08. Passionate Raindrops [0:04:50.08]
09. Tell Your Heart I Love You [0:04:30.10]
10. True Love [0:03:32.35]
11. Shelter In The Rain (feat. Kirk Franklin) [0:04:19.10]
12. So What The Fuss (feat. En Vogue on backing vocals and Prince on guitar) [0:05:04.22]
13. Can't Imagine Love Without You [0:03:45.19]
14. Positivity (feat. Aisha Morris) [0:05:07.12]
15. A Time To Love (feat. India.Arie, and Paul McCartney on guitar) [0:09:17.14]
[свернуть]

youtube.com

[свернуть]

EAC лог

Exact Audio Copy V1.0 beta 3 from 29. August 2011

EAC extraction logfile from 6. December 2014, 9:35

Stevie Wonder / A Time To Love

Used drive : ATAPI iHAS124 D Adapter: 0 ID: 2

Read mode : Secure
Utilize accurate stream : Yes
Defeat audio cache : Yes
Make use of C2 pointers : No

Read offset correction : 6
Overread into Lead-In and Lead-Out : No
Fill up missing offset samples with silence : Yes
Delete leading and trailing silent blocks : No
Null samples used in CRC calculations : Yes
Used interface : Installed external ASPI interface

Used output format : User Defined Encoder
Selected bitrate : 1024 kBit/s
Quality : High
Add ID3 tag : No
Command line compressor : C:\Program Files (x86)\Exact Audio Copy\Flac\flac.exe
Additional command line options : -6 -V -T "ARTIST=%artist%" -T "TITLE=%title%" -T "ALBUM=%albumtitle%" -T "DATE=%year%" -T "TRACKNUMBER=%tracknr%" -T "GENRE=%genre%" -T "COMMENT=%comment%" -T "BAND=%albuminterpret%" -T "COMPOSER=%composer%" %haslyrics%--tag-from-file=LYRICS="%lyricsfile%"%haslyrics% -T "DISCNUMBER=%cdnumber%" -T "TOTALDISCS=%totalcds%" -T "TOTALTRACKS=%numtracks%" %hascover%--picture="%coverfile%"%hascover% %source% -o %dest%


TOC of the extracted CD

Track | Start | Length | Start sector | End sector
---------------------------------------------------------
1 | 0:00.00 | 6:11.58 | 0 | 27882
2 | 6:11.58 | 4:31.20 | 27883 | 48227
3 | 10:43.03 | 6:44.66 | 48228 | 78593
4 | 17:27.69 | 5:11.67 | 78594 | 101985
5 | 22:39.61 | 4:40.33 | 101986 | 123018
6 | 27:20.19 | 3:39.15 | 123019 | 139458
7 | 30:59.34 | 6:16.12 | 139459 | 167670
8 | 37:15.46 | 4:50.08 | 167671 | 189428
9 | 42:05.54 | 4:30.10 | 189429 | 209688
10 | 46:35.64 | 3:32.35 | 209689 | 225623
11 | 50:08.24 | 4:19.10 | 225624 | 245058
12 | 54:27.34 | 5:04.22 | 245059 | 267880
13 | 59:31.56 | 3:45.19 | 267881 | 284774
14 | 63:17.00 | 5:07.12 | 284775 | 307811
15 | 68:24.12 | 9:17.14 | 307812 | 349600


Range status and errors

Selected range

Filename C:\mm\Stevie Wonder\2005 - A Time To Love [602498621882]\Stevie Wonder - A Time To Love.wav

Peak level 99.9 %
Extraction speed 7.8 X
Range quality 99.9 %
Test CRC 23B17F4F
Copy CRC 23B17F4F
Copy OK

No errors occurred


AccurateRip summary

Track 1 accurately ripped (confidence 108) [7A9A88FD] (AR v2)
Track 2 accurately ripped (confidence 109) [6AA07384] (AR v2)
Track 3 accurately ripped (confidence 109) [56B9D5FC] (AR v2)
Track 4 accurately ripped (confidence 110) [8B18D116] (AR v2)
Track 5 accurately ripped (confidence 108) [BD528741] (AR v2)
Track 6 accurately ripped (confidence 106) [AB96F2A0] (AR v2)
Track 7 accurately ripped (confidence 109) [F011B9E7] (AR v2)
Track 8 accurately ripped (confidence 108) [48D3B201] (AR v2)
Track 9 accurately ripped (confidence 109) [80AAC8E5] (AR v2)
Track 10 accurately ripped (confidence 108) [D13D52A3] (AR v2)
Track 11 accurately ripped (confidence 108) [715A3D93] (AR v2)
Track 12 accurately ripped (confidence 108) [5C0D291E] (AR v2)
Track 13 accurately ripped (confidence 108) [BA0C5671] (AR v2)
Track 14 accurately ripped (confidence 108) [1B141127] (AR v2)
Track 15 accurately ripped (confidence 107) [00A76C72] (AR v2)

All tracks accurately ripped

End of status report
[свернуть]

Файл CUE

REM GENRE R&B
REM DATE 2005
REM DISCID DC12350F
REM COMMENT "ExactAudioCopy v1.0b3"
PERFORMER "Stevie Wonder"
TITLE "A Time To Love"
FILE "Stevie Wonder - A Time To Love.flac" WAVE
TRACK 01 AUDIO
TITLE "If Your Love Cannot Be Moved (feat. Kim Burrell)"
PERFORMER "Stevie Wonder"
INDEX 01 00:00:00
TRACK 02 AUDIO
TITLE "Sweetest Somebody I Know"
PERFORMER "Stevie Wonder"
INDEX 01 06:11:58
TRACK 03 AUDIO
TITLE "Moon Blue"
PERFORMER "Stevie Wonder"
INDEX 01 10:43:03
TRACK 04 AUDIO
TITLE "From The Bottom Of My Heart"
PERFORMER "Stevie Wonder"
INDEX 01 17:27:69
TRACK 05 AUDIO
TITLE "Please Don't Hurt My Baby"
PERFORMER "Stevie Wonder"
INDEX 01 22:39:61
TRACK 06 AUDIO
TITLE "How Will I Know (feat. Aisha Morris)"
PERFORMER "Stevie Wonder"
INDEX 01 27:20:19
TRACK 07 AUDIO
TITLE "My Love Is On Fire"
PERFORMER "Stevie Wonder"
INDEX 01 30:59:34
TRACK 08 AUDIO
TITLE "Passionate Raindrops"
PERFORMER "Stevie Wonder"
INDEX 01 37:15:46
TRACK 09 AUDIO
TITLE "Tell Your Heart I Love You"
PERFORMER "Stevie Wonder"
INDEX 01 42:05:54
TRACK 10 AUDIO
TITLE "True Love"
PERFORMER "Stevie Wonder"
INDEX 01 46:35:64
TRACK 11 AUDIO
TITLE "Shelter In The Rain"
PERFORMER "Stevie Wonder"
INDEX 01 50:08:24
TRACK 12 AUDIO
TITLE "So What The Fuss"
PERFORMER "Stevie Wonder"
INDEX 01 54:27:34
TRACK 13 AUDIO
TITLE "Can't Imagine Love Without You"
PERFORMER "Stevie Wonder"
INDEX 01 59:31:56
TRACK 14 AUDIO
TITLE "Positivity (feat. Aisha Morris)"
PERFORMER "Stevie Wonder"
INDEX 01 63:17:00
TRACK 15 AUDIO
TITLE "A Time To Love (feat. India. Arie)"
PERFORMER "Stevie Wonder"
INDEX 01 68:24:12
[свернуть]

Лог проверки качества

AUDIOCHECKER v2.0 beta (build 457) - by Dester -
~~~~~~~~~~~~~~~~~~~~~~~~~~~~~~~~~~
-=== НЕ РЕДАКТИРУЙТЕ ЭТОТ ФАЙЛ! ===-

Путь: ...\2005 - A Time To Love [602498621882]

1 -=- Stevie Wonder - A Time To Love.flac -=- CDDA (100%)

65125396
[свернуть]

Спектр частот

[свернуть]

Скачать Stevie Wonder - A Time To Love



password: sergych
[свернуть]

Контрольная сумма (хеш-сумма) архива

MD5: e1d0e854cd2c3f58212f1af7fabf55f3
[свернуть]
My opinion of release: 9/10

Release info RInfo

Новый студийный альбом после десятилетнего затишья был встречен положительными отзывами. А сам исполнитель удостоился Гремми в номинации "Best Male Pop Vocal Performance" (уже четвёртый раз) за песню "From the Bottom of My Heart"
__________________
TAIFUN.Wings of Soul


Последний раз редактировалось sergych, 22.01.2018 в 21:19. Причина: перезаливка
Вверх
3 пользователя(ей) сказали cпасибо:
Показать список поблагодаривших
  #2
Старый 19.01.2018, 01:54
johnsilver
Меломан
Досье
 
Аватар для johnsilver
По умолчанию Re: Stevie Wonder - A Time To Love

Спасибо! Задник-обложку не нашёл в архиве.

Вверх
2 пользователя(ей) сказали cпасибо:
sergych (19.01.2018), TAIFUN (19.01.2018)
  #3
Старый 19.01.2018, 12:59
sergych
Координатор
Досье
 
Аватар для sergych
По умолчанию Re: Stevie Wonder - A Time To Love

johnsilver, проверил, - действительно не отсканировал
Диск, в своих "залежах", нашёл, но отсканировать смогу только в понедельник. Тогда же и перезалью архив
__________________
TAIFUN.Wings of Soul

Вверх
2 пользователя(ей) сказали cпасибо:
johnsilver (19.01.2018), TAIFUN (19.01.2018)
  #4
Старый 19.01.2018, 14:30
johnsilver
Меломан
Досье
 
Аватар для johnsilver
По умолчанию Re: Stevie Wonder - A Time To Love

sergych, дык не горит, спасибо!

Вверх
  #5
Старый 22.01.2018, 21:21
sergych
Координатор
Досье
 
Аватар для sergych
По умолчанию Re: Stevie Wonder - A Time To Love

перезалито, ссылка прежняя.
В архив добавлены недостающие сканы, описание релиза дополнено контрольной суммой архива.
__________________
TAIFUN.Wings of Soul

Вверх
2 пользователя(ей) сказали cпасибо:
johnsilver (23.01.2018), swint68 (26.01.2018)
Похожие темы
Тема Автор Раздел Ответов Последнее сообщение
Релиз The Beegie Adair Trio - A Time for Love PUPOKIN Jazz и Blues 0 18.12.2013 07:52
Релиз Dan Fogelberg - Love In Time PUPOKIN Soft Rock 0 24.09.2009 17:02
Альбом Emiliana Torrini - Love In The Time Of Science sergych Jazz и Blues 0 20.06.2009 20:56
Альбом LOU ANN BARTON / STEVIE RAY VAUGHAN - Sugar Coated Love PUPOKIN Jazz и Blues 0 15.06.2009 14:52
Релиз Lenny Kravitz - It Is Time For A Love Revolution LUСIAN Pop Rock 0 21.04.2008 21:52


Метки
2005 , a time to love , pop , r&b , soul , stevie wonder

Опции темы

Ваши права в разделе
Вы не можете создавать новые темы
Вы не можете отвечать в темах
Вы не можете прикреплять вложения
Вы не можете редактировать свои сообщения

Быстрый переход



Текущее время: 18:02. Часовой пояс GMT +3.
Powered by vBulletin® Version 3.8.10
Copyright ©2000 - 2018, vBulletin Solutions, Inc. Перевод: zCarot
© 2008 - 2018 Taifun With Song
Яндекс.Метрика