TAIFUN With Song
Навигация
R&B Ссылки на музыку в этом стиле

А знаете ли Вы, что...
Сколько музыкантов и композиторов произошло из семьи Бахов?
«Иоганн Себастьян Бах был не единственным талантом в своей семье. Бахи дали миру более 50 известных музыкантов и несколько замечательных композиторов. Сам Иоганн Себастьян был признан наиболее выдающимся из них намного позже своей смерти. В последние же годы жизни Иоганна Себастьяна его больше почитали за воспитание Бахов-младших, в первую очередь Карла Филиппа Эммануила, музыка которого была известнее.»
 
Опции темы

  #1
Старый 25.07.2014, 17:04
sergych
Координатор
Досье
 
Аватар для sergych
Релиз Toni Braxton - The Heat


2000 - Toni Braxton - The Heat




Исполнитель/Artist: Toni Braxton
Альбом/Album: The Heat
Год/Year: 2000
Жанр/Genre: R&B, soul, pop
Страна/Country: Соединённые Штаты
Рекорд-лейбл/Record label: LaFace Records
Номер в каталоге/Catalogue #: 73008-26069-2
Формат/Format: Free Lossless Audio Codec (*.flac)
Качество/Quality: Lossless
Тип рипа/RIP Type: image+.cue
Продолжительность/Length: 00:48:40
Источник/Source: Собственный рип
Размер/Size: 406.7 MB

Сканы в комплекте

Треклист

01. He Wasn't Man Enough [0:04:21.70]
02. The Heat [0:03:30.22]
03. Spanish Guitar [0:04:49.00]
04. Just Be A Man About It [0:04:48.70]
05. Gimme Some [0:04:03.00]
06. I'm Still Breathing [0:04:15.15]
07. Fairy Tale [0:04:22.48]
08. The Art Of Love [0:03:47.42]
09. Speaking In Tongues [0:03:46.60]
10. Maybe [0:03:08.65]
11. You've Been Wrong [0:03:45.00]
12. Never Just For A Ring [0:04:01.03]
[свернуть]

youtube.com

[свернуть]

Исполнители/Performers

Toni Braxton - vocals, producer, executive producer, co-producer, arranger, keyboards
Teddy Bishop - producer, instrumentation, keyboards, programming
Trina Braxton - backing vocals
Dorian "Soul Dog" Daniels - keyboards, bass
LaShawn Daniels - vocal producer, vocal arrangement
Dr. Dre - additional vocals
Nathan East - bass
Ray Edwards - keyboards
Deborah Killings - backing vocals
Greg Phillinganes - piano
John Smith - guitar
Scott Storch - keyboards, programming
[свернуть]

EAC лог

Exact Audio Copy V1.0 beta 3 from 29. August 2011

EAC extraction logfile from 24. July 2014, 0:21

Toni Braxton / The Heat

Used drive : ATAPI iHAS124 D Adapter: 0 ID: 2

Read mode : Secure
Utilize accurate stream : Yes
Defeat audio cache : Yes
Make use of C2 pointers : No

Read offset correction : 6
Overread into Lead-In and Lead-Out : No
Fill up missing offset samples with silence : Yes
Delete leading and trailing silent blocks : No
Null samples used in CRC calculations : Yes
Used interface : Installed external ASPI interface

Used output format : User Defined Encoder
Selected bitrate : 1024 kBit/s
Quality : High
Add ID3 tag : No
Command line compressor : C:\Program Files (x86)\Exact Audio Copy\Flac\flac.exe
Additional command line options : -6 -V -T "ARTIST=%artist%" -T "TITLE=%title%" -T "ALBUM=%albumtitle%" -T "DATE=%year%" -T "TRACKNUMBER=%tracknr%" -T "GENRE=%genre%" -T "COMMENT=%comment%" -T "BAND=%albuminterpret%" -T "COMPOSER=%composer%" %haslyrics%--tag-from-file=LYRICS="%lyricsfile%"%haslyrics% -T "DISCNUMBER=%cdnumber%" -T "TOTALDISCS=%totalcds%" -T "TOTALTRACKS=%numtracks%" %hascover%--picture="%coverfile%"%hascover% %source% -o %dest%


TOC of the extracted CD

Track | Start | Length | Start sector | End sector
---------------------------------------------------------
1 | 0:00.00 | 4:21.70 | 0 | 19644
2 | 4:21.70 | 3:30.22 | 19645 | 35416
3 | 7:52.17 | 4:49.00 | 35417 | 57091
4 | 12:41.17 | 4:48.70 | 57092 | 78761
5 | 17:30.12 | 4:03.00 | 78762 | 96986
6 | 21:33.12 | 4:15.15 | 96987 | 116126
7 | 25:48.27 | 4:22.48 | 116127 | 135824
8 | 30:11.00 | 3:47.42 | 135825 | 152891
9 | 33:58.42 | 3:46.60 | 152892 | 169901
10 | 37:45.27 | 3:08.65 | 169902 | 184066
11 | 40:54.17 | 3:45.00 | 184067 | 200941
12 | 44:39.17 | 4:01.03 | 200942 | 219019


Range status and errors

Selected range

Filename C:\mm\Toni Braxton\2000 - The Heat [73008-26069-2]\Toni Braxton - The Heat.wav

Suspicious position 0:46:58

Peak level 100.0 %
Extraction speed 1.2 X
Range quality 99.8 %
Test CRC C415AA8A
Copy CRC C4C97A05
Copy finished

There were errors


AccurateRip summary

Track 1 accurately ripped (confidence 2) [F5F48909] (AR v1)
Track 2 accurately ripped (confidence 2) [E20F7133] (AR v1)
Track 3 accurately ripped (confidence 2) [8465A881] (AR v1)
Track 4 accurately ripped (confidence 2) [D17608D9] (AR v1)
Track 5 accurately ripped (confidence 2) [AFAD21FC] (AR v1)
Track 6 accurately ripped (confidence 2) [10DE7A6C] (AR v1)
Track 7 accurately ripped (confidence 3) [5E5C5D73] (AR v1)
Track 8 accurately ripped (confidence 2) [CD111D3F] (AR v1)
Track 9 accurately ripped (confidence 2) [8616DC58] (AR v1)
Track 10 accurately ripped (confidence 2) [F0FE3DEB] (AR v1)
Track 11 accurately ripped (confidence 2) [1FDAE2E0] (AR v1)
Track 12 cannot be verified as accurate (confidence 14) [BFA12E82], AccurateRip returned [F7EA490D] (AR v2)

11 трек(и) скопированы точно
1 трек(и) не удалось проверить на точность

Some tracks could not be verified as accurate

End of status report
[свернуть]

Файл CUE

REM GENRE R&B
REM DATE 2000
REM DISCID 960B680C
REM COMMENT "ExactAudioCopy v1.0b3"
PERFORMER "Toni Braxton"
TITLE "The Heat"
FILE "Toni Braxton - The Heat.flac" WAVE
TRACK 01 AUDIO
TITLE "He Wasn't Man Enough"
PERFORMER "Toni Braxton"
INDEX 01 00:00:00
TRACK 02 AUDIO
TITLE "The Heat"
PERFORMER "Toni Braxton"
INDEX 01 04:21:70
TRACK 03 AUDIO
TITLE "Spanish Guitar"
PERFORMER "Toni Braxton"
INDEX 01 07:52:17
TRACK 04 AUDIO
TITLE "Just Be A Man About It"
PERFORMER "Toni Braxton"
INDEX 01 12:41:17
TRACK 05 AUDIO
TITLE "Gimme Some"
PERFORMER "Toni Braxton"
INDEX 01 17:30:12
TRACK 06 AUDIO
TITLE "I'm Still Breathing"
PERFORMER "Toni Braxton"
INDEX 01 21:33:12
TRACK 07 AUDIO
TITLE "Fairy Tale"
PERFORMER "Toni Braxton"
INDEX 01 25:48:27
TRACK 08 AUDIO
TITLE "The Art Of Love"
PERFORMER "Toni Braxton"
INDEX 01 30:11:00
TRACK 09 AUDIO
TITLE "Speaking In Tongues"
PERFORMER "Toni Braxton"
INDEX 01 33:58:42
TRACK 10 AUDIO
TITLE "Maybe"
PERFORMER "Toni Braxton"
INDEX 01 37:45:27
TRACK 11 AUDIO
TITLE "You've Been Wrong"
PERFORMER "Toni Braxton"
INDEX 01 40:54:17
TRACK 12 AUDIO
TITLE "Never Just For A Ring"
PERFORMER "Toni Braxton"
INDEX 01 44:39:17
[свернуть]

Лог проверки качества

AUDIOCHECKER v2.0 beta (build 457) - by Dester -
~~~~~~~~~~~~~~~~~~~~~~~~~~~~~~~~~~
-=== НЕ РЕДАКТИРУЙТЕ ЭТОТ ФАЙЛ! ===-

Путь: ...\2000 - The Heat [73008-26069-2]

1 -=- Toni Braxton - The Heat.flac -=- CDDA (99%)

76560292
[свернуть]

Спектр частот

[свернуть]

Скачать Toni Braxton - The Heat



password: sergych
[свернуть]
My opinion of release: 10/10
__________________
TAIFUN.Wings of Soul

Вверх
2 пользователя(ей) сказали cпасибо:
Chert (19.08.2014), TAIFUN (19.05.2015)
  #2
Старый 19.05.2015, 17:20
TAIFUN
Admin
Досье
 
Аватар для TAIFUN
По умолчанию Re: Toni Braxton - The Heat

За альбом да ещё собственный рип - большая благодарность!
Отличная по качеству запись.
__________________
I love the music
FAQ по форуму
Правила форума
Жизнь человека - это не самое главное в его жизни...

Вверх
Пользователь сказал cпасибо:
sergych (22.05.2015)
  #3
Старый 22.05.2015, 18:44
sergych
Координатор
Досье
 
Аватар для sergych
По умолчанию Re: Toni Braxton - The Heat

Цитата: Сообщение от TAIFUN Посмотреть сообщение
Отличная по качеству запись

CRC не сходится. Царапка неудачная на рабочей стороне, увы.
В июне жду японца

надеюсь, что будет удачнее
__________________
TAIFUN.Wings of Soul

Вверх
  #4
Старый 24.05.2015, 22:02
TAIFUN
Admin
Досье
 
Аватар для TAIFUN
По умолчанию Re: Toni Braxton - The Heat

Цитата: Сообщение от sergych Посмотреть сообщение
CRC не сходится. Царапка неудачная на рабочей стороне, увы.

А, рип не совсем удачный? А звучание мне понравилось.
__________________
I love the music
FAQ по форуму
Правила форума
Жизнь человека - это не самое главное в его жизни...

Вверх
Пользователь сказал cпасибо:
sergych (24.05.2015)
  #5
Старый 24.05.2015, 22:08
sergych
Координатор
Досье
 
Аватар для sergych
По умолчанию Re: Toni Braxton - The Heat

Цитата: Сообщение от TAIFUN Посмотреть сообщение
рип не совсем удачный? А звучание мне понравилось

Цитата: Сообщение от sergych Посмотреть сообщение
Test CRC C415AA8A
Copy CRC C4C97A05

Альбом приятный, согласен. Но рип не точный
__________________
TAIFUN.Wings of Soul

Вверх
Пользователь сказал cпасибо:
TAIFUN (25.05.2015)
  #6
Старый 21.06.2015, 12:22
sergych
Координатор
Досье
 
Аватар для sergych
Релиз Re: Toni Braxton - The Heat


2000 - Toni Braxton - The Heat




Исполнитель/Artist: Toni Braxton
Альбом/Album: The Heat
Год/Year: 2000
Жанр/Genre: R&B, soul, pop
Страна/Country: Япония
Рекорд-лейбл/Record label: LaFace Records ‎/ BMG Japan
Номер в каталоге/Catalogue #: BVGA-21057
Формат/Format: Free Lossless Audio Codec (*.flac)
Качество/Quality: Lossless
Тип рипа/RIP Type: image+.cue
Продолжительность/Length: 00:48:41
Источник/Source: Собственный рип
Размер/Size: 472.7 MB

Сканы в комплекте

Треклист

01. He Wasn't Man Enough [0:04:21.70]
02. The Heat [0:03:30.22]
03. Spanish Guitar [0:04:49.00]
04. Just Be A Man About It [0:04:48.70]
05. Gimme Some [0:04:03.00]
06. I'm Still Breathing [0:04:15.15]
07. Fairy Tale [0:04:22.48]
08. The Art Of Love [0:03:47.42]
09. Speaking In Tongues [0:03:46.60]
10. Maybe [0:03:08.65]
11. You've Been Wrong [0:03:45.00]
12. Never Just For A Ring [0:04:01.03]
[свернуть]

youtube.com

[свернуть]

Исполнители/Performers

Toni Braxton - vocals, producer, executive producer, co-producer, arranger, keyboards
Teddy Bishop - producer, instrumentation, keyboards, programming
Trina Braxton - backing vocals
Dorian "Soul Dog" Daniels - keyboards, bass
LaShawn Daniels - vocal producer, vocal arrangement
Dr. Dre - additional vocals
Nathan East - bass
Ray Edwards - keyboards
Deborah Killings - backing vocals
Greg Phillinganes - piano
John Smith - guitar
Scott Storch - keyboards, programming
[свернуть]

EAC лог

Exact Audio Copy V1.0 beta 3 from 29. August 2011

EAC extraction logfile from 18. June 2015, 19:29

Toni Braxton / The Heat

Used drive : ATAPI iHAS124 D Adapter: 0 ID: 2

Read mode : Secure
Utilize accurate stream : Yes
Defeat audio cache : Yes
Make use of C2 pointers : No

Read offset correction : 6
Overread into Lead-In and Lead-Out : No
Fill up missing offset samples with silence : Yes
Delete leading and trailing silent blocks : No
Null samples used in CRC calculations : Yes
Used interface : Installed external ASPI interface

Used output format : User Defined Encoder
Selected bitrate : 1024 kBit/s
Quality : High
Add ID3 tag : No
Command line compressor : C:\Program Files (x86)\Exact Audio Copy\Flac\flac.exe
Additional command line options : -6 -V -T "ARTIST=%artist%" -T "TITLE=%title%" -T "ALBUM=%albumtitle%" -T "DATE=%year%" -T "TRACKNUMBER=%tracknr%" -T "GENRE=%genre%" -T "COMMENT=%comment%" -T "BAND=%albuminterpret%" -T "COMPOSER=%composer%" %haslyrics%--tag-from-file=LYRICS="%lyricsfile%"%haslyrics% -T "DISCNUMBER=%cdnumber%" -T "TOTALDISCS=%totalcds%" -T "TOTALTRACKS=%numtracks%" %hascover%--picture="%coverfile%"%hascover% %source% -o %dest%


TOC of the extracted CD

Track | Start | Length | Start sector | End sector
---------------------------------------------------------
1 | 0:00.00 | 4:21.70 | 0 | 19644
2 | 4:21.70 | 3:30.22 | 19645 | 35416
3 | 7:52.17 | 4:49.00 | 35417 | 57091
4 | 12:41.17 | 4:48.70 | 57092 | 78761
5 | 17:30.12 | 4:03.00 | 78762 | 96986
6 | 21:33.12 | 4:15.15 | 96987 | 116126
7 | 25:48.27 | 4:22.48 | 116127 | 135824
8 | 30:11.00 | 3:47.42 | 135825 | 152891
9 | 33:58.42 | 3:46.60 | 152892 | 169901
10 | 37:45.27 | 3:08.65 | 169902 | 184066
11 | 40:54.17 | 3:45.00 | 184067 | 200941
12 | 44:39.17 | 4:01.03 | 200942 | 219019


Range status and errors

Selected range

Filename C:\mm\Toni Braxton\2000 - The Heat [BVGA-21057]\Toni Braxton - The Heat.wav

Peak level 100.0 %
Extraction speed 8.5 X
Range quality 99.9 %
Test CRC 8F2D7EDD
Copy CRC 8F2D7EDD
Copy OK

No errors occurred


AccurateRip summary

Track 1 accurately ripped (confidence 2) [24773140] (AR v2)
Track 2 accurately ripped (confidence 2) [199D5CCD] (AR v2)
Track 3 accurately ripped (confidence 2) [66DA9663] (AR v2)
Track 4 accurately ripped (confidence 2) [EADDB753] (AR v2)
Track 5 accurately ripped (confidence 2) [330C5FC8] (AR v2)
Track 6 accurately ripped (confidence 2) [AA201977] (AR v2)
Track 7 accurately ripped (confidence 2) [698ADE16] (AR v2)
Track 8 accurately ripped (confidence 2) [B71803DE] (AR v2)
Track 9 accurately ripped (confidence 2) [E67E6C2E] (AR v2)
Track 10 accurately ripped (confidence 2) [FF83E0CE] (AR v2)
Track 11 accurately ripped (confidence 2) [A80FC84D] (AR v2)
Track 12 accurately ripped (confidence 2) [40254291] (AR v2)

All tracks accurately ripped

End of status report
[свернуть]

Файл CUE

REM GENRE R&B
REM DATE 2000
REM DISCID 960B680C
REM COMMENT "ExactAudioCopy v1.0b3"
PERFORMER "Toni Braxton"
TITLE "The Heat"
FILE "Toni Braxton - The Heat.flac" WAVE
TRACK 01 AUDIO
TITLE "He Wasn't Man Enough"
PERFORMER "Toni Braxton"
INDEX 01 00:00:00
TRACK 02 AUDIO
TITLE "The Heat"
PERFORMER "Toni Braxton"
INDEX 01 04:21:70
TRACK 03 AUDIO
TITLE "Spanish Guitar"
PERFORMER "Toni Braxton"
INDEX 01 07:52:17
TRACK 04 AUDIO
TITLE "Just Be A Man About It"
PERFORMER "Toni Braxton"
INDEX 01 12:41:17
TRACK 05 AUDIO
TITLE "Gimme Some"
PERFORMER "Toni Braxton"
INDEX 01 17:30:12
TRACK 06 AUDIO
TITLE "I'm Still Breathing"
PERFORMER "Toni Braxton"
INDEX 01 21:33:12
TRACK 07 AUDIO
TITLE "Fairy Tale"
PERFORMER "Toni Braxton"
INDEX 01 25:48:27
TRACK 08 AUDIO
TITLE "The Art Of Love"
PERFORMER "Toni Braxton"
INDEX 01 30:11:00
TRACK 09 AUDIO
TITLE "Speaking In Tongues"
PERFORMER "Toni Braxton"
INDEX 01 33:58:42
TRACK 10 AUDIO
TITLE "Maybe"
PERFORMER "Toni Braxton"
INDEX 01 37:45:27
TRACK 11 AUDIO
TITLE "You've Been Wrong"
PERFORMER "Toni Braxton"
INDEX 01 40:54:17
TRACK 12 AUDIO
TITLE "Never Just For A Ring"
PERFORMER "Toni Braxton"
INDEX 01 44:39:17
[свернуть]

Лог проверки качества

AUDIOCHECKER v2.0 beta (build 457) - by Dester -
~~~~~~~~~~~~~~~~~~~~~~~~~~~~~~~~~~
-=== НЕ РЕДАКТИРУЙТЕ ЭТОТ ФАЙЛ! ===-

Путь: ...\2000 - The Heat [BVGA-21057]

1 -=- Toni Braxton - The Heat.flac -=- CDDA (100%)

151184196
[свернуть]

Спектр частот

[свернуть]

Скачать Toni Braxton - The Heat



password: sergych
[свернуть]
My opinion of release: 10/10
__________________
TAIFUN.Wings of Soul

Вверх
2 пользователя(ей) сказали cпасибо:
alexandro (27.12.2015), Chert (01.10.2015)
Похожие темы
Тема Автор Раздел Ответов Последнее сообщение
Альбом Toni Braxton - Toni Braxton sergych R&B 1 19.05.2015 17:20
Альбом Toni Braxton - Secrets sergych R&B 3 19.05.2015 17:08
Альбом Toni Braxton - More Than A Woman sergych R&B 0 06.04.2014 08:35
Альбом Toni Braxton – Pulse sergych R&B 0 24.12.2013 16:40
Сборник Hafentunnel Mixed by Marco Bailey & Toni Rios ( PUPOKIN Techno 0 27.11.2009 13:11


Метки
2000 , pop , r&b , soul , the heat , toni braxton

Опции темы

Ваши права в разделе
Вы не можете создавать новые темы
Вы не можете отвечать в темах
Вы не можете прикреплять вложения
Вы не можете редактировать свои сообщения

Быстрый переход



Текущее время: 00:47. Часовой пояс GMT +3.
Powered by vBulletin® Version 3.8.10
Copyright ©2000 - 2018, vBulletin Solutions, Inc. Перевод: zCarot
© 2008 - 2018 Taifun With Song
Яндекс.Метрика