TAIFUN With Song
Навигация
R&B Ссылки на музыку в этом стиле

А знаете ли Вы, что...
Хобби Альберта Эйнштейна!
«Эйнштейн любил играть на скрипке и однажды принял участие в благотворительном концерте в Германии.»
 
Опции темы

  #1
Старый 13.01.2014, 17:45
sergych
Координатор
Досье
 
Аватар для sergych
Релиз Toni Braxton - Secrets


1996 - Toni Braxton - Secrets




Исполнитель/Artist: Toni Braxton
Альбом/Album: Secrets
Год/Year: 1996
Жанр/Genre: R&B, soul, pop
Страна/Country: Европа
Рекорд-лейбл/Record label: LaFace Records
Номер в каталоге/Catalogue #: 73008 26020 2
Формат/Format: Free Lossless Audio Codec (*.flac)
Качество/Quality: Lossless
Тип рипа/RIP Type: image+.cue
Продолжительность/Length: 00:54:58
Источник/Source: Собственный рип
Размер/Size: 646.6 MB

Сканы в комплекте

Треклист

01. Come on Over Here [0:03:37.08]
02. You're Makin Me High [0:04:27.20]
03. There's No Me Without You [0:04:19.22]
04. Un-Break My Heart [0:04:30.35]
05. Talking in His Sleep [0:05:33.18]
06. How Could an Angel Break My Heart [0:04:19.62]
07. Find Me a Man [0:04:29.03]
08. Let It Flow [0:04:22.27]
09. Why Should I Care [0:04:25.53]
10. I Don't Want To [0:04:17.07]
11. I Love Me Some Him [0:05:07.18]
12. In the Late of Night / I Toni's Secrets [0:05:29.70]
[свернуть]

youtube.com

[свернуть]

Исполнители/Performers

Toni Braxton: Vocal
Jakkai Butler, Andrea Martin, Sherree Ford-Payne, Chante Moore, Marc Nelson, Tony Rich, Shanice: Backing vocals
Babyface: Acoustic and electric guitars, backing vocals, keyboards, programming
Dean Parks, Michael Thompson: Guitars
Keith Crouch: Organ, multiple instruments
R. Kelly: Backing vocals, ultiple instruments
Greg Phillinganes: Piano and synthesizers
Nathan East, Reggie Hamilton: Bass
Luis Conte: Percussion
Randy Walker, Bryce Wilson: Programming
Kenny G.: Saxophone
[свернуть]

EAC лог

Exact Audio Copy V1.0 beta 3 from 29. August 2011

EAC extraction logfile from 13. January 2014, 20:33

Toni Braxton / Secrets

Used drive : ATAPI iHAS124 D Adapter: 0 ID: 2

Read mode : Secure
Utilize accurate stream : Yes
Defeat audio cache : Yes
Make use of C2 pointers : Yes

Read offset correction : 6
Overread into Lead-In and Lead-Out : No
Fill up missing offset samples with silence : Yes
Delete leading and trailing silent blocks : No
Null samples used in CRC calculations : Yes
Used interface : Installed external ASPI interface

Used output format : User Defined Encoder
Selected bitrate : 1024 kBit/s
Quality : High
Add ID3 tag : No
Command line compressor : C:\Program Files (x86)\Exact Audio Copy\Flac\flac.exe
Additional command line options : -6 -V -T "ARTIST=%artist%" -T "TITLE=%title%" -T "ALBUM=%albumtitle%" -T "DATE=%year%" -T "TRACKNUMBER=%tracknr%" -T "GENRE=%genre%" -T "COMMENT=%comment%" -T "BAND=%albuminterpret%" -T "COMPOSER=%composer%" %haslyrics%--tag-from-file=LYRICS="%lyricsfile%"%haslyrics% -T "DISCNUMBER=%cdnumber%" -T "TOTALDISCS=%totalcds%" -T "TOTALTRACKS=%numtracks%" %hascover%--picture="%coverfile%"%hascover% %source% -o %dest%


TOC of the extracted CD

Track | Start | Length | Start sector | End sector
---------------------------------------------------------
1 | 0:00.32 | 3:37.08 | 32 | 16314
2 | 3:37.40 | 4:27.20 | 16315 | 36359
3 | 8:04.60 | 4:19.22 | 36360 | 55806
4 | 12:24.07 | 4:30.35 | 55807 | 76091
5 | 16:54.42 | 5:33.18 | 76092 | 101084
6 | 22:27.60 | 4:19.62 | 101085 | 120571
7 | 26:47.47 | 4:29.03 | 120572 | 140749
8 | 31:16.50 | 4:22.27 | 140750 | 160426
9 | 35:39.02 | 4:25.53 | 160427 | 180354
10 | 40:04.55 | 4:17.07 | 180355 | 199636
11 | 44:21.62 | 5:07.18 | 199637 | 222679
12 | 49:29.05 | 5:29.70 | 222680 | 247424


Range status and errors

Selected range

Filename C:\mm\Toni Braxton\1996 - Secrets [73008 26020 2]\Toni Braxton - Secrets.wav

Peak level 97.7 %
Extraction speed 13.1 X
Range quality 100.0 %
Test CRC 24F196CB
Copy CRC 24F196CB
Copy OK

No errors occurred


AccurateRip summary

Track 1 accurately ripped (confidence 14) [97B48F82] (AR v2)
Track 2 accurately ripped (confidence 14) [A5FA6A88] (AR v2)
Track 3 accurately ripped (confidence 14) [8A7C0FEF] (AR v2)
Track 4 accurately ripped (confidence 13) [B689C3BF] (AR v2)
Track 5 accurately ripped (confidence 14) [AD23A6E1] (AR v2)
Track 6 accurately ripped (confidence 13) [7ED5A0E6] (AR v2)
Track 7 accurately ripped (confidence 14) [5FD54468] (AR v2)
Track 8 accurately ripped (confidence 14) [0ADC021A] (AR v2)
Track 9 accurately ripped (confidence 14) [5E7D6D52] (AR v2)
Track 10 accurately ripped (confidence 14) [F13F7AF5] (AR v2)
Track 11 accurately ripped (confidence 14) [1A142FA0] (AR v2)
Track 12 accurately ripped (confidence 14) [BC2BBE37] (AR v2)

All tracks accurately ripped

End of status report
[свернуть]

Файл CUE

REM DATE 1996
REM DISCID AA0CE30C
REM COMMENT "ExactAudioCopy v1.0b3"
PERFORMER "Toni Braxton"
TITLE "Secrets"
FILE "Toni Braxton - Secrets.flac" WAVE
TRACK 01 AUDIO
TITLE "Come on Over Here"
PERFORMER "Toni Braxton"
INDEX 00 00:00:00
INDEX 01 00:00:32
TRACK 02 AUDIO
TITLE "You're Makin Me High"
PERFORMER "Toni Braxton"
INDEX 01 03:37:40
TRACK 03 AUDIO
TITLE "There's No Me Without You"
PERFORMER "Toni Braxton"
INDEX 01 08:04:60
TRACK 04 AUDIO
TITLE "Un-Break My Heart"
PERFORMER "Toni Braxton"
INDEX 01 12:24:07
TRACK 05 AUDIO
TITLE "Talking in His Sleep"
PERFORMER "Toni Braxton"
INDEX 01 16:54:42
TRACK 06 AUDIO
TITLE "How Could an Angel Break My Heart"
PERFORMER "Toni Braxton"
INDEX 01 22:27:60
TRACK 07 AUDIO
TITLE "Find Me a Man"
PERFORMER "Toni Braxton"
INDEX 00 26:47:12
INDEX 01 26:47:47
TRACK 08 AUDIO
TITLE "Let It Flow"
PERFORMER "Toni Braxton"
INDEX 01 31:16:50
TRACK 09 AUDIO
TITLE "Why Should I Care"
PERFORMER "Toni Braxton"
INDEX 01 35:39:02
TRACK 10 AUDIO
TITLE "I Don't Want To"
PERFORMER "Toni Braxton"
INDEX 01 40:04:55
TRACK 11 AUDIO
TITLE "I Love Me Some Him"
PERFORMER "Toni Braxton"
INDEX 01 44:21:62
TRACK 12 AUDIO
TITLE "In the Late of Night / I Toni's Secrets"
PERFORMER "Toni Braxton"
INDEX 01 49:29:05
INDEX 02 54:43:50
[свернуть]

Лог проверки качества

AUDIOCHECKER v2.0 beta (build 457) - by Dester -
~~~~~~~~~~~~~~~~~~~~~~~~~~~~~~~~~~
-=== НЕ РЕДАКТИРУЙТЕ ЭТОТ ФАЙЛ! ===-

Путь: ...\1996 - Secrets [73008 26020 2]

1 -=- Toni Braxton - Secrets.flac -=- CDDA (99%)

226850532
[свернуть]

Спектр частот

[свернуть]

Скачать Toni Braxton - Secrets



password: sergych
[свернуть]
My opinion of release: 10/10
__________________
TAIFUN.Wings of Soul

Вверх
2 пользователя(ей) сказали cпасибо:
Chert (19.08.2014), TAIFUN (26.04.2015)
  #2
Старый 25.04.2015, 18:02
sergych
Координатор
Досье
 
Аватар для sergych
Релиз Re: Toni Braxton - Secrets


1996 - Secrets




Исполнитель/Artist: Toni Braxton
Альбом/Album: Secrets
Год/Year: 1996
Жанр/Genre: R&B, pop, soul
Страна/Country: Япония
Рекорд-лейбл/Record label: LaFace Records ‎/ BMG Victor
Номер в каталоге/Catalogue #: BVCA-686
Формат/Format: Free Lossless Audio Codec (*.flac)
Качество/Quality: Lossless
Тип рипа/RIP Type: image+.cue
Продолжительность/Length: 00:54:58
Источник/Source: Собственный рип
Размер/Size: 477.5 MB

Сканы в комплекте

Треклист

01. Come On Over Here [0:03:37.05]
02. You're Makin Me High [0:04:27.22]
03. There's No Me Without You [0:04:19.20]
04. Un-Break My Heart [0:04:30.38]
05. Talking In His Sleep [0:05:32.72]
06. How Could An Angle Break My Heart [0:04:20.10]
07. Find Me A Man [0:04:29.03]
08. Let It Flow [0:04:22.40]
09. Why Should I Care [0:04:25.40]
10. I Don't Want To [0:04:17.15]
11. I Love Me Some Him [0:05:07.20]
12. In The Late Of Night [0:05:14.15]
13. Toni's Secrets [0:00:15.00]
[свернуть]

youtube.com

[свернуть]

Исполнители/Performers

Toni Braxton: Vocal
Jakkai Butler, Andrea Martin, Sherree Ford-Payne, Chante Moore, Marc Nelson, Tony Rich, Shanice: Backing vocals
Babyface: Acoustic and electric guitars, backing vocals, keyboards, programming
Dean Parks, Michael Thompson: Guitars
Keith Crouch: Organ, multiple instruments
R. Kelly: Backing vocals, multiple instruments
Greg Phillinganes: Piano and synthesizers
Nathan East, Reggie Hamilton: Bass
Luis Conte: Percussion
Randy Walker, Bryce Wilson: Programming
Kenny G.: Saxophone
[свернуть]

EAC лог

Exact Audio Copy V1.0 beta 3 from 29. August 2011

EAC extraction logfile from 25. April 2015, 17:50

Toni Braxton / Secrets

Used drive : ATAPI iHAS124 D Adapter: 0 ID: 2

Read mode : Secure
Utilize accurate stream : Yes
Defeat audio cache : Yes
Make use of C2 pointers : No

Read offset correction : 6
Overread into Lead-In and Lead-Out : No
Fill up missing offset samples with silence : Yes
Delete leading and trailing silent blocks : No
Null samples used in CRC calculations : Yes
Used interface : Installed external ASPI interface

Used output format : User Defined Encoder
Selected bitrate : 1024 kBit/s
Quality : High
Add ID3 tag : No
Command line compressor : C:\Program Files (x86)\Exact Audio Copy\Flac\flac.exe
Additional command line options : -6 -V -T "ARTIST=%artist%" -T "TITLE=%title%" -T "ALBUM=%albumtitle%" -T "DATE=%year%" -T "TRACKNUMBER=%tracknr%" -T "GENRE=%genre%" -T "COMMENT=%comment%" -T "BAND=%albuminterpret%" -T "COMPOSER=%composer%" %haslyrics%--tag-from-file=LYRICS="%lyricsfile%"%haslyrics% -T "DISCNUMBER=%cdnumber%" -T "TOTALDISCS=%totalcds%" -T "TOTALTRACKS=%numtracks%" %hascover%--picture="%coverfile%"%hascover% %source% -o %dest%


TOC of the extracted CD

Track | Start | Length | Start sector | End sector
---------------------------------------------------------
1 | 0:00.00 | 3:37.05 | 0 | 16279
2 | 3:37.05 | 4:27.22 | 16280 | 36326
3 | 8:04.27 | 4:19.20 | 36327 | 55771
4 | 12:23.47 | 4:30.38 | 55772 | 76059
5 | 16:54.10 | 5:32.72 | 76060 | 101031
6 | 22:27.07 | 4:20.10 | 101032 | 120541
7 | 26:47.17 | 4:29.03 | 120542 | 140719
8 | 31:16.20 | 4:22.40 | 140720 | 160409
9 | 35:38.60 | 4:25.40 | 160410 | 180324
10 | 40:04.25 | 4:17.15 | 180325 | 199614
11 | 44:21.40 | 5:07.20 | 199615 | 222659
12 | 49:28.60 | 5:14.15 | 222660 | 246224
13 | 54:43.00 | 0:15.00 | 246225 | 247349


Range status and errors

Selected range

Filename C:\mm\Toni Braxton\1996 - Secrets [BVCA-686]\Toni Braxton - Secrets.wav

Peak level 97.7 %
Extraction speed 8.9 X
Range quality 100.0 %
Test CRC 732DDB2C
Copy CRC 732DDB2C
Copy OK

No errors occurred


AccurateRip summary

Track 1 accurately ripped (confidence 3) [DAEB3179] (AR v1)
Track 2 accurately ripped (confidence 3) [2CC724EA] (AR v1)
Track 3 accurately ripped (confidence 3) [03EA2C35] (AR v1)
Track 4 accurately ripped (confidence 3) [A3E2DDF7] (AR v1)
Track 5 accurately ripped (confidence 3) [6010711C] (AR v1)
Track 6 accurately ripped (confidence 3) [2AF60C77] (AR v1)
Track 7 accurately ripped (confidence 3) [41F01687] (AR v1)
Track 8 accurately ripped (confidence 3) [695093AD] (AR v1)
Track 9 accurately ripped (confidence 2) [48567E9A] (AR v1)
Track 10 accurately ripped (confidence 3) [E531FD5C] (AR v1)
Track 11 accurately ripped (confidence 2) [90D01DFF] (AR v1)
Track 12 accurately ripped (confidence 3) [B531A8FA] (AR v1)
Track 13 not present in database

12 трек(и) скопированы точно
1 трек(и) не содержатся в базе AccurateRip

Some tracks could not be verified as accurate

End of status report
[свернуть]

Файл CUE

REM GENRE R&B
REM DATE 1996
REM DISCID B90CE20D
REM COMMENT "ExactAudioCopy v1.0b3"
PERFORMER "Toni Braxton"
TITLE "Secrets"
FILE "Toni Braxton - Secrets.flac" WAVE
TRACK 01 AUDIO
TITLE "Come On Over Here"
PERFORMER "Toni Braxton"
INDEX 01 00:00:00
TRACK 02 AUDIO
TITLE "You're Makin Me High"
PERFORMER "Toni Braxton"
INDEX 01 03:37:05
TRACK 03 AUDIO
TITLE "There's No Me Without You"
PERFORMER "Toni Braxton"
INDEX 01 08:04:27
TRACK 04 AUDIO
TITLE "Un-Break My Heart"
PERFORMER "Toni Braxton"
INDEX 01 12:23:47
TRACK 05 AUDIO
TITLE "Talking In His Sleep"
PERFORMER "Toni Braxton"
INDEX 01 16:54:10
TRACK 06 AUDIO
TITLE "How Could An Angle Break My Heart"
PERFORMER "Toni Braxton"
INDEX 01 22:27:07
TRACK 07 AUDIO
TITLE "Find Me A Man"
PERFORMER "Toni Braxton"
INDEX 01 26:47:17
TRACK 08 AUDIO
TITLE "Let It Flow"
PERFORMER "Toni Braxton"
INDEX 01 31:16:20
TRACK 09 AUDIO
TITLE "Why Should I Care"
PERFORMER "Toni Braxton"
INDEX 01 35:38:60
TRACK 10 AUDIO
TITLE "I Don't Want To"
PERFORMER "Toni Braxton"
INDEX 01 40:04:25
TRACK 11 AUDIO
TITLE "I Love Me Some Him"
PERFORMER "Toni Braxton"
INDEX 01 44:21:40
TRACK 12 AUDIO
TITLE "In The Late Of Night"
PERFORMER "Toni Braxton"
INDEX 01 49:28:60
TRACK 13 AUDIO
TITLE "Toni's Secrets"
PERFORMER "Toni Braxton"
INDEX 01 54:43:00
[свернуть]

Лог проверки качества

AUDIOCHECKER v2.0 beta (build 457) - by Dester -
~~~~~~~~~~~~~~~~~~~~~~~~~~~~~~~~~~
-=== НЕ РЕДАКТИРУЙТЕ ЭТОТ ФАЙЛ! ===-

Путь: ...\1996 - Secrets [BVCA-686]

1 -=- Toni Braxton - Secrets.flac -=- CDDA (99%)

226850532
[свернуть]

Спектр частот

[свернуть]

Скачать Toni Braxton - Secrets



password: sergych
[свернуть]
My opinion of release: 10/10
__________________
TAIFUN.Wings of Soul

Вверх
3 пользователя(ей) сказали cпасибо:
Показать список поблагодаривших
  #3
Старый 26.04.2015, 02:25
TAIFUN
Admin
Досье
 
Аватар для TAIFUN
По умолчанию Re: Toni Braxton - Secrets

sergych, Серёж, я иногда просто удивляюсь. Мы с тобой на одной волне, похоже.
Я себе в задачник поставил недавно - скачать её диски. ))
__________________
I love the music
FAQ по форуму
Правила форума
Жизнь человека - это не самое главное в его жизни...

Вверх
Пользователь сказал cпасибо:
sergych (28.04.2015)
  #4
Старый 19.05.2015, 17:08
TAIFUN
Admin
Досье
 
Аватар для TAIFUN
По умолчанию Re: Toni Braxton - Secrets

Серёж, в куе европейского издания отсутствует строка (японский не качал, не любитель):
REM GENRE R&B
посему в проигрывателе не отображается жанр + в магнитоле порой выставляю фильтр воспроизведения музыки определённого жанра.

Исправленный куй:

.cue файл европейского издания

REM GENRE R&B
REM DATE 1996
REM DISCID AA0CE30C
REM COMMENT "ExactAudioCopy v1.0b3"
PERFORMER "Toni Braxton"
TITLE "Secrets"
FILE "Toni Braxton - Secrets.flac" WAVE
TRACK 01 AUDIO
TITLE "Come on Over Here"
PERFORMER "Toni Braxton"
INDEX 00 00:00:00
INDEX 01 00:00:32
TRACK 02 AUDIO
TITLE "You're Makin Me High"
PERFORMER "Toni Braxton"
INDEX 01 03:37:40
TRACK 03 AUDIO
TITLE "There's No Me Without You"
PERFORMER "Toni Braxton"
INDEX 01 08:04:60
TRACK 04 AUDIO
TITLE "Un-Break My Heart"
PERFORMER "Toni Braxton"
INDEX 01 12:24:07
TRACK 05 AUDIO
TITLE "Talking in His Sleep"
PERFORMER "Toni Braxton"
INDEX 01 16:54:42
TRACK 06 AUDIO
TITLE "How Could an Angel Break My Heart"
PERFORMER "Toni Braxton"
INDEX 01 22:27:60
TRACK 07 AUDIO
TITLE "Find Me a Man"
PERFORMER "Toni Braxton"
INDEX 00 26:47:12
INDEX 01 26:47:47
TRACK 08 AUDIO
TITLE "Let It Flow"
PERFORMER "Toni Braxton"
INDEX 01 31:16:50
TRACK 09 AUDIO
TITLE "Why Should I Care"
PERFORMER "Toni Braxton"
INDEX 01 35:39:02
TRACK 10 AUDIO
TITLE "I Don't Want To"
PERFORMER "Toni Braxton"
INDEX 01 40:04:55
TRACK 11 AUDIO
TITLE "I Love Me Some Him"
PERFORMER "Toni Braxton"
INDEX 01 44:21:62
TRACK 12 AUDIO
TITLE "In the Late of Night / I Toni's Secrets"
PERFORMER "Toni Braxton"
INDEX 01 49:29:05
INDEX 02 54:43:50
[свернуть]
P.S. Классный альбом. Особенно вещь "You're Makin Me High"
My opinion of release: 10/10
__________________
I love the music
FAQ по форуму
Правила форума
Жизнь человека - это не самое главное в его жизни...

Вверх
Пользователь сказал cпасибо:
sergych (22.05.2015)
Похожие темы
Тема Автор Раздел Ответов Последнее сообщение
Альбом Toni Braxton - Toni Braxton sergych R&B 1 19.05.2015 17:20
Альбом Toni Braxton – Pulse sergych R&B 0 24.12.2013 16:40
Релиз Zarif - Box Of Secrets PUPOKIN Зарубежная Поп-Музыка 0 30.08.2010 09:12
Сборник Hafentunnel Mixed by Marco Bailey & Toni Rios ( PUPOKIN Techno 0 27.11.2009 13:11
Релиз Dubdiver - Box Of Secrets PUPOKIN Lounge 0 18.11.2009 11:10


Метки
1996 , pop , r&b , secrets , soul , toni braxton

Опции темы

Ваши права в разделе
Вы не можете создавать новые темы
Вы не можете отвечать в темах
Вы не можете прикреплять вложения
Вы не можете редактировать свои сообщения

Быстрый переход



Текущее время: 11:39. Часовой пояс GMT +3.
Powered by vBulletin® Version 3.8.10
Copyright ©2000 - 2018, vBulletin Solutions, Inc. Перевод: zCarot
© 2008 - 2018 Taifun With Song
Яндекс.Метрика