TAIFUN With Song
Навигация
R&B Ссылки на музыку в этом стиле

А знаете ли Вы, что...
Какой музыкант однажды спел о том, что забыл слова этой песни?
«Однажды на концерте во Франции солист исландской группы Sigur Rós Йонси забыл текст песни. Не остановившись, он сымпровизировал под ту же музыку: «Чёрт, я забыл слова. Но это ничего. Потому что я во Франции, где никто не поймёт».»
 
Опции темы

  #1
Старый 23.12.2013, 19:09
sergych
Координатор
Досье
 
Аватар для sergych
Релиз Toni Braxton - Toni Braxton


1993 - Toni Braxton - Toni Braxton




Исполнитель/Artist: Toni Braxton
Альбом/Album: Toni Braxton
Год/Year: 1993
Жанр/Genre: R&B, soul, pop
Страна/Country: Германия
Рекорд-лейбл/Record label: Arista / BMG
Номер в каталоге/Catalogue #: 74321 16268 2
Формат/Format: Free Lossless Audio Codec (*.flac)
Качество/Quality: Lossless
Тип рипа/RIP Type: image+.cue
Продолжительность/Length: 00:59:44
Источник/Source: Собственный рип
Размер/Size: 484 MB

Сканы в комплекте

Треклист

01. Another Sad Love Song [0:05:01.55]
02. Breathe Again [0:04:29.13]
03. Seven Whole Days [0:06:20.10]
04. Love Affair [0:04:28.42]
05. Candlelight [0:04:38.73]
06. Spending My Time With You [0:04:11.17]
07. Love Shoulda Brought You Home [0:04:58.18]
08. I Belong To You [0:03:54.17]
09. How Many Ways [0:04:48.30]
10. You Mean The World To Me [0:04:56.30]
11. Best Friend [0:04:27.15]
12. Breathe Again (Reprise) [0:01:18.48]
13. Give You My Heart (Mad Ball Mix) [0:06:11.52]
[свернуть]

youtube.com

[свернуть]

EAC лог

Exact Audio Copy V1.0 beta 3 from 29. August 2011

EAC extraction logfile from 23. December 2013, 20:49

Toni Braxton / Toni Braxton

Used drive : ATAPI iHAS124 D Adapter: 0 ID: 2

Read mode : Secure
Utilize accurate stream : Yes
Defeat audio cache : Yes
Make use of C2 pointers : Yes

Read offset correction : 6
Overread into Lead-In and Lead-Out : No
Fill up missing offset samples with silence : Yes
Delete leading and trailing silent blocks : No
Null samples used in CRC calculations : Yes
Used interface : Installed external ASPI interface

Used output format : User Defined Encoder
Selected bitrate : 1024 kBit/s
Quality : High
Add ID3 tag : No
Command line compressor : C:\Program Files (x86)\Exact Audio Copy\Flac\flac.exe
Additional command line options : -6 -V -T "ARTIST=%artist%" -T "TITLE=%title%" -T "ALBUM=%albumtitle%" -T "DATE=%year%" -T "TRACKNUMBER=%tracknr%" -T "GENRE=%genre%" -T "COMMENT=%comment%" -T "BAND=%albuminterpret%" -T "COMPOSER=%composer%" %haslyrics%--tag-from-file=LYRICS="%lyricsfile%"%haslyrics% -T "DISCNUMBER=%cdnumber%" -T "TOTALDISCS=%totalcds%" -T "TOTALTRACKS=%numtracks%" %hascover%--picture="%coverfile%"%hascover% %source% -o %dest%


TOC of the extracted CD

Track | Start | Length | Start sector | End sector
---------------------------------------------------------
1 | 0:00.32 | 5:01.55 | 32 | 22661
2 | 5:02.12 | 4:29.13 | 22662 | 42849
3 | 9:31.25 | 6:20.10 | 42850 | 71359
4 | 15:51.35 | 4:28.42 | 71360 | 91501
5 | 20:20.02 | 4:38.73 | 91502 | 112424
6 | 24:59.00 | 4:11.17 | 112425 | 131266
7 | 29:10.17 | 4:58.18 | 131267 | 153634
8 | 34:08.35 | 3:54.17 | 153635 | 171201
9 | 38:02.52 | 4:48.30 | 171202 | 192831
10 | 42:51.07 | 4:56.30 | 192832 | 215061
11 | 47:47.37 | 4:27.15 | 215062 | 235101
12 | 52:14.52 | 1:18.48 | 235102 | 240999
13 | 53:33.25 | 6:11.52 | 241000 | 268876


Range status and errors

Selected range

Filename C:\mm\Toni Braxton\1993 - Toni Braxton\Toni Braxton - Toni Braxton.wav

Peak level 99.5 %
Extraction speed 4.8 X
Range quality 99.9 %
Test CRC FD0AA405
Copy CRC FD0AA405
Copy OK

No errors occurred


AccurateRip summary

Track 1 accurately ripped (confidence 8) [F904F888] (AR v2)
Track 2 accurately ripped (confidence 8) [9B5A6CAC] (AR v2)
Track 3 accurately ripped (confidence 8) [50ACF33C] (AR v2)
Track 4 accurately ripped (confidence 8) [FD150282] (AR v2)
Track 5 accurately ripped (confidence 8) [397061F1] (AR v2)
Track 6 accurately ripped (confidence 8) [BEEDD24F] (AR v2)
Track 7 accurately ripped (confidence 8) [5A1AED75] (AR v2)
Track 8 accurately ripped (confidence 8) [50A0927A] (AR v2)
Track 9 accurately ripped (confidence 8) [1F694026] (AR v2)
Track 10 accurately ripped (confidence 8) [AEE1C4BF] (AR v2)
Track 11 accurately ripped (confidence 8) [ADE97095] (AR v2)
Track 12 accurately ripped (confidence 8) [C1AFA999] (AR v2)
Track 13 accurately ripped (confidence 8) [51C6B9EA] (AR v2)

All tracks accurately ripped

End of status report
[свернуть]

Файл CUE

REM DATE 1993
REM DISCID 9F0E010D
REM COMMENT "ExactAudioCopy v1.0b3"
PERFORMER "Toni Braxton"
TITLE "Toni Braxton"
FILE "Toni Braxton - Toni Braxton.flac" WAVE
TRACK 01 AUDIO
TITLE "Another Sad Love Song"
PERFORMER "Toni Braxton"
INDEX 00 00:00:00
INDEX 01 00:00:32
TRACK 02 AUDIO
TITLE "Breathe Again"
PERFORMER "Toni Braxton"
INDEX 01 05:02:12
TRACK 03 AUDIO
TITLE "Seven Whole Days"
PERFORMER "Toni Braxton"
INDEX 01 09:31:25
TRACK 04 AUDIO
TITLE "Love Affair"
PERFORMER "Toni Braxton"
INDEX 01 15:51:35
TRACK 05 AUDIO
TITLE "Candlelight"
PERFORMER "Toni Braxton"
INDEX 01 20:20:02
TRACK 06 AUDIO
TITLE "Spending My Time With You"
PERFORMER "Toni Braxton"
INDEX 01 24:59:00
TRACK 07 AUDIO
TITLE "Love Shoulda Brought You Home"
PERFORMER "Toni Braxton"
INDEX 01 29:10:17
TRACK 08 AUDIO
TITLE "I Belong To You"
PERFORMER "Toni Braxton"
INDEX 00 34:08:17
INDEX 01 34:08:35
TRACK 09 AUDIO
TITLE "How Many Ways"
PERFORMER "Toni Braxton"
INDEX 01 38:02:52
TRACK 10 AUDIO
TITLE "You Mean The World To Me"
PERFORMER "Toni Braxton"
INDEX 00 42:50:57
INDEX 01 42:51:07
TRACK 11 AUDIO
TITLE "Best Friend"
PERFORMER "Toni Braxton"
INDEX 00 47:46:28
INDEX 01 47:47:37
TRACK 12 AUDIO
TITLE "Breathe Again (Reprise)"
PERFORMER "Toni Braxton"
INDEX 01 52:14:52
TRACK 13 AUDIO
TITLE "Give You My Heart (Mad Ball Mix)"
PERFORMER "Toni Braxton"
INDEX 00 53:31:22
INDEX 01 53:33:25
[свернуть]

Лог проверки качества

AUDIOCHECKER v2.0 beta (build 457) - by Dester -
~~~~~~~~~~~~~~~~~~~~~~~~~~~~~~~~~~
-=== НЕ РЕДАКТИРУЙТЕ ЭТОТ ФАЙЛ! ===-

Путь: ...\1993 - Toni Braxton

1 -=- Toni Braxton - Toni Braxton.flac -=- MPEG (95%)

34918804
[свернуть]

Спектр частот

[свернуть]

Скачать Toni Braxton - Toni Braxton



password: sergych
[свернуть]
My opinion of release: 10/10
__________________
TAIFUN.Wings of Soul

Вверх
3 пользователя(ей) сказали cпасибо:
Показать список поблагодаривших
  #2
Старый 19.05.2015, 17:20
TAIFUN
Admin
Досье
 
Аватар для TAIFUN
По умолчанию Re: Toni Braxton - Toni Braxton

В этом релизе тоже не хватает строки в куе
REM GENRE R&B
__________________
I love the music
FAQ по форуму
Правила форума
Жизнь человека - это не самое главное в его жизни...

Вверх
Пользователь сказал cпасибо:
sergych (22.05.2015)
Похожие темы
Тема Автор Раздел Ответов Последнее сообщение
Сборник Hafentunnel Mixed by Marco Bailey & Toni Rios ( PUPOKIN Techno 0 27.11.2009 13:11


Метки
1993 , pop , r&b , soul , toni braxton

Опции темы

Ваши права в разделе
Вы не можете создавать новые темы
Вы не можете отвечать в темах
Вы не можете прикреплять вложения
Вы не можете редактировать свои сообщения

Быстрый переход



Текущее время: 10:09. Часовой пояс GMT +3.
Powered by vBulletin® Version 3.8.10
Copyright ©2000 - 2018, vBulletin Solutions, Inc. Перевод: zCarot
© 2008 - 2018 Taifun With Song
Яндекс.Метрика