TAIFUN With Song
Навигация
R&B Ссылки на музыку в этом стиле

А знаете ли Вы, что...
Какое совпадение связало смерти солиста Boney M и Григория Распутина?
«Бобби Фаррелл, единственный мужчина в диско-группе Boney M, во время исполнения одного из главных хитов группы «Rasputin» часто гримировался в образ Распутина. Фаррелл умер от остановки сердца во время гастролей в Санкт-Петербурге 30 декабря 2010 года — того же числа и в том же городе, что и сам Распутин.»
 
Опции темы

  #1
Старый 11.08.2013, 18:35
sergych
Координатор
Досье
 
Аватар для sergych
Релиз Boyz II Men – II


1994 - Boyz II Men – II [Japan]




Исполнитель/Artist: Boyz II Men
Альбом/Album: II [Japan]
Год/Year: 1994
Жанр/Genre: RNB
Страна/Country: Япония
Рекорд-лейбл/Record label: Motown Record / Polydor K.K.
Номер в каталоге/Catalogue #: POCT 1050
Формат/Format: Free Lossless Audio Codec (*.flac)
Качество/Quality: Lossless
Тип рипа/RIP Type: image+.cue
Продолжительность/Length: 01:01:45
Источник/Source: Из интернета
Размер/Size: 518.2 MB

Сканы в комплекте

Треклист

01 - Thank You
02 - All Around the World
03 - U Know (featuring Craig Mack)
04 - Vibin' (featuring LL Cool J)
05 - I Sit Away
06 - Jezzebel
07 - Khalil (Interlude)
08 - Trying Times
09 - I'll Make Love to You
10 - On Bended Knee
11 - 50 Candles
12 - Water Runs Dry
13 - Yesterday
14 - Falling
[свернуть]

youtube.com

[свернуть]

EAC лог

Exact Audio Copy V0.99 prebeta 5 from 4. May 2009

EAC extraction logfile from 26. December 2010, 11:23

Boyz II Men / II

Used drive : PIONEER DVD-RW DVR-115D Adapter: 5 ID: 0

Read mode : Secure
Utilize accurate stream : Yes
Defeat audio cache : Yes
Make use of C2 pointers : No

Read offset correction : 48
Overread into Lead-In and Lead-Out : No
Fill up missing offset samples with silence : Yes
Delete leading and trailing silent blocks : No
Null samples used in CRC calculations : Yes
Used interface : Native Win32 interface for Win NT & 2000

Used output format : User Defined Encoder
Selected bitrate : 1024 kBit/s
Quality : High
Add ID3 tag : No
Command line compressor : C:\Program Files\Exact Audio Copy\Flac\flac.exe
Additional command line options : -8 -V -T "ARTIST=%a" -T "TITLE=%t" -T "ALBUM=%g" -T "DATE=%y" -T "TRACKNUMBER=%n" -T "GENRE=%m" -T "COMMENT=EAC FLAC -8" %s


TOC of the extracted CD

Track | Start | Length | Start sector | End sector
---------------------------------------------------------
1 | 0:00.00 | 4:35.15 | 0 | 20639
2 | 4:35.15 | 4:56.17 | 20640 | 42856
3 | 9:31.32 | 4:46.33 | 42857 | 64339
4 | 14:17.65 | 4:28.12 | 64340 | 84451
5 | 18:46.02 | 4:34.35 | 84452 | 105036
6 | 23:20.37 | 6:06.38 | 105037 | 132524
7 | 29:27.00 | 1:41.00 | 132525 | 140099
8 | 31:08.00 | 5:23.30 | 140100 | 164354
9 | 36:31.30 | 3:56.65 | 164355 | 182119
10 | 40:28.20 | 5:30.15 | 182120 | 206884
11 | 45:58.35 | 5:07.05 | 206885 | 229914
12 | 51:05.40 | 3:22.22 | 229915 | 245086
13 | 54:27.62 | 3:09.15 | 245087 | 259276
14 | 57:37.02 | 4:08.60 | 259277 | 277936


Range status and errors

Selected range

Filename G:\Boyz II Men - II [Japan] 1994\Boyz II Men - II.wav

Peak level 100.0 %
Range quality 99.9 %
Test CRC CADDCA02
Copy CRC CADDCA02
Copy OK

No errors occurred


AccurateRip summary

Track 1 accurately ripped (confidence 1) [25DAB918]
Track 2 accurately ripped (confidence 1) [22CAA58C]
Track 3 accurately ripped (confidence 1) [3AF21F18]
Track 4 accurately ripped (confidence 1) [3E57DD30]
Track 5 accurately ripped (confidence 1) [AF94810E]
Track 6 accurately ripped (confidence 1) [4912A617]
Track 7 accurately ripped (confidence 1) [AD508EC2]
Track 8 accurately ripped (confidence 1) [841CB2D2]
Track 9 accurately ripped (confidence 1) [CEA5EE8D]
Track 10 accurately ripped (confidence 1) [1D401D88]
Track 11 accurately ripped (confidence 1) [884F0E5B]
Track 12 accurately ripped (confidence 1) [E8E8AA48]
Track 13 not present in database
Track 14 not present in database

12 track(s) accurately ripped
2 track(s) not present in the AccurateRip database

Some tracks could not be verified as accurate

End of status report
[свернуть]

Файл CUE

REM GENRE blues
REM DATE 1994
REM DISCID D10E790E
REM COMMENT "ExactAudioCopy v0.99pb5"
PERFORMER "Boyz II Men"
TITLE "II"
FILE "Boyz II Men - II.flac" WAVE
TRACK 01 AUDIO
TITLE "Thank You"
PERFORMER "Boyz II Men"
INDEX 01 00:00:00
TRACK 02 AUDIO
TITLE "All Around The World"
PERFORMER "Boyz II Men"
INDEX 01 04:35:15
TRACK 03 AUDIO
TITLE "U Know"
PERFORMER "Boyz II Men"
INDEX 01 09:31:32
TRACK 04 AUDIO
TITLE "Vibin'"
PERFORMER "Boyz II Men"
INDEX 01 14:17:65
TRACK 05 AUDIO
TITLE "I Sit Away"
PERFORMER "Boyz II Men"
INDEX 00 18:45:37
INDEX 01 18:46:02
TRACK 06 AUDIO
TITLE "Jezzebel"
PERFORMER "Boyz II Men"
INDEX 01 23:20:37
TRACK 07 AUDIO
TITLE "Khalil(Interlude)"
PERFORMER "Boyz II Men"
INDEX 01 29:27:00
TRACK 08 AUDIO
TITLE "Trying Times"
PERFORMER "Boyz II Men"
INDEX 01 31:08:00
TRACK 09 AUDIO
TITLE "I'll Make Love to You"
PERFORMER "Boyz II Men"
INDEX 00 36:31:20
INDEX 01 36:31:30
TRACK 10 AUDIO
TITLE "On Bended Knee"
PERFORMER "Boyz II Men"
INDEX 01 40:28:20
TRACK 11 AUDIO
TITLE "50 Candles"
PERFORMER "Boyz II Men"
INDEX 00 45:58:15
INDEX 01 45:58:35
TRACK 12 AUDIO
TITLE "Water Runs Dry"
PERFORMER "Boyz II Men"
INDEX 01 51:05:40
TRACK 13 AUDIO
TITLE "Yeasterday"
PERFORMER "Boyz II Men"
INDEX 00 54:27:07
INDEX 01 54:27:62
TRACK 14 AUDIO
TITLE "Fallin'"
PERFORMER "Boyz II Men"
INDEX 00 57:36:20
INDEX 01 57:37:02
[свернуть]

Лог проверки качества

AUDIOCHECKER v2.0 beta (build 457)
~~~~~~~~~~~~~~~~~~~~~~~~~~~~~~~~~~

Started at: четверг, 14. 04. 2011. - 19:35.55
1 file found

1 -===- G:\Boyz II Men - II [Japan] 1994\CD\Boyz II Men - II.flac
Extracted successfully
Conclusion: this track is CDDA with probability 100%
Tempfile successfully deleted.


Finished at: четверг, 14. 04. 2011. - 19:43.32 (operation time: 0:07.37)
[свернуть]

Скачать Boyz II Men – II



password: sergych
[свернуть]
My opinion of release: 10/10
__________________
TAIFUN.Wings of Soul

Вверх
Пользователь сказал cпасибо:
alexandro (04.01.2016)
  #2
Старый 22.11.2013, 22:18
sergych
Координатор
Досье
 
Аватар для sergych
Релиз Re: Boyz II Men – II


1994 - Boyz II Men – II




Исполнитель/Artist: Boyz II Men
Альбом/Album: II
Год/Year: 1994
Жанр/Genre: RNB
Страна/Country: Канада
Рекорд-лейбл/Record label: Motown Records
Номер в каталоге/Catalogue #: MOTD 323
Формат/Format: Free Lossless Audio Codec (*.flac)
Качество/Quality: Lossless
Тип рипа/RIP Type: image+.cue
Продолжительность/Length: 00:57:36
Источник/Source: Собственный рип
Размер/Size: 596 MB

Сканы в комплекте

Треклист

01 - Thank You
02 - All Around the World
03 - U Know (featuring Craig Mack)
04 - Vibin' (featuring LL Cool J)
05 - I Sit Away
06 - Jezzebel
07 - Khalil (Interlude)
08 - Trying Times
09 - I'll Make Love to You
10 - On Bended Knee
11 - 50 Candles
12 - Water Runs Dry
13 - Yesterday
[свернуть]

youtube.com

[свернуть]

Исполнители/Performers

Shawn Stockman
Michael S. McCary
Nathan Morris
Wanya Morris
[свернуть]

EAC лог

Exact Audio Copy V1.0 beta 3 from 29. August 2011

EAC extraction logfile from 23. November 2013, 0:14

Boyz II Men / II

Used drive : ATAPI iHAS124 D Adapter: 0 ID: 2

Read mode : Secure
Utilize accurate stream : Yes
Defeat audio cache : Yes
Make use of C2 pointers : No

Read offset correction : 6
Overread into Lead-In and Lead-Out : No
Fill up missing offset samples with silence : Yes
Delete leading and trailing silent blocks : No
Null samples used in CRC calculations : Yes
Used interface : Installed external ASPI interface

Used output format : User Defined Encoder
Selected bitrate : 1024 kBit/s
Quality : High
Add ID3 tag : No
Command line compressor : C:\Program Files (x86)\Exact Audio Copy\Flac\flac.exe
Additional command line options : -6 -V -T "ARTIST=%artist%" -T "TITLE=%title%" -T "ALBUM=%albumtitle%" -T "DATE=%year%" -T "TRACKNUMBER=%tracknr%" -T "GENRE=%genre%" -T "COMMENT=%comment%" -T "BAND=%albuminterpret%" -T "COMPOSER=%composer%" %haslyrics%--tag-from-file=LYRICS="%lyricsfile%"%haslyrics% -T "DISCNUMBER=%cdnumber%" -T "TOTALDISCS=%totalcds%" -T "TOTALTRACKS=%numtracks%" %hascover%--picture="%coverfile%"%hascover% %source% -o %dest%


TOC of the extracted CD

Track | Start | Length | Start sector | End sector
---------------------------------------------------------
1 | 0:00.00 | 4:35.15 | 0 | 20639
2 | 4:35.15 | 4:56.12 | 20640 | 42851
3 | 9:31.27 | 4:46.38 | 42852 | 64339
4 | 14:17.65 | 4:27.67 | 64340 | 84431
5 | 18:45.57 | 4:34.50 | 84432 | 105031
6 | 23:20.32 | 6:06.43 | 105032 | 132524
7 | 29:27.00 | 1:41.00 | 132525 | 140099
8 | 31:08.00 | 5:23.32 | 140100 | 164356
9 | 36:31.32 | 3:56.58 | 164357 | 182114
10 | 40:28.15 | 5:30.12 | 182115 | 206876
11 | 45:58.27 | 5:07.15 | 206877 | 229916
12 | 51:05.42 | 3:22.18 | 229917 | 245084
13 | 54:27.60 | 3:08.20 | 245085 | 259204


Range status and errors

Selected range

Filename C:\mm\Boyz II Men\1994 - II [MOTD 323]\Boyz II Men - II.wav

Peak level 100.0 %
Extraction speed 3.3 X
Range quality 100.0 %
Test CRC 1E439F9A
Copy CRC 1E439F9A
Copy OK

No errors occurred


AccurateRip summary

Track 1 accurately ripped (confidence 7) [4EB3E356] (AR v2)
Track 2 accurately ripped (confidence 7) [54BECCF8] (AR v2)
Track 3 accurately ripped (confidence 6) [4FFEACCA] (AR v2)
Track 4 accurately ripped (confidence 6) [F825274F] (AR v2)
Track 5 accurately ripped (confidence 6) [82121E38] (AR v2)
Track 6 accurately ripped (confidence 6) [EB3C0AD3] (AR v2)
Track 7 accurately ripped (confidence 6) [B6885133] (AR v2)
Track 8 accurately ripped (confidence 6) [1EB78777] (AR v2)
Track 9 accurately ripped (confidence 6) [628A74D3] (AR v2)
Track 10 accurately ripped (confidence 6) [1CFA158C] (AR v2)
Track 11 accurately ripped (confidence 5) [C2709022] (AR v2)
Track 12 accurately ripped (confidence 5) [32CA5E30] (AR v2)
Track 13 accurately ripped (confidence 5) [2B8B5ECA] (AR v2)

All tracks accurately ripped

End of status report
[свернуть]

Файл CUE

REM GENRE R&B
REM DATE 1994
REM DISCID BB0D800D
REM COMMENT "ExactAudioCopy v1.0b3"
PERFORMER "Boyz II Men"
TITLE "II"
FILE "Boyz II Men - II.flac" WAVE
TRACK 01 AUDIO
TITLE "Thank You"
PERFORMER "Boyz II Men"
INDEX 01 00:00:00
TRACK 02 AUDIO
TITLE "All Around The World"
PERFORMER "Boyz II Men"
INDEX 01 04:35:15
TRACK 03 AUDIO
TITLE "U Know"
PERFORMER "Boyz II Men"
INDEX 01 09:31:27
TRACK 04 AUDIO
TITLE "Vibin'"
PERFORMER "Boyz II Men"
INDEX 01 14:17:65
TRACK 05 AUDIO
TITLE "I Sit Away"
PERFORMER "Boyz II Men"
INDEX 01 18:45:57
TRACK 06 AUDIO
TITLE "Jezzebel"
PERFORMER "Boyz II Men"
INDEX 01 23:20:32
TRACK 07 AUDIO
TITLE "Khalil (Interlude)"
PERFORMER "Boyz II Men"
INDEX 01 29:27:00
TRACK 08 AUDIO
TITLE "Trying Times"
PERFORMER "Boyz II Men"
INDEX 01 31:08:00
TRACK 09 AUDIO
TITLE "I'll Make Love To You"
PERFORMER "Boyz II Men"
INDEX 01 36:31:32
TRACK 10 AUDIO
TITLE "On Bended Knee"
PERFORMER "Boyz II Men"
INDEX 01 40:28:15
TRACK 11 AUDIO
TITLE "50 Candles"
PERFORMER "Boyz II Men"
INDEX 00 45:58:00
INDEX 01 45:58:27
TRACK 12 AUDIO
TITLE "Water Runs Dry"
PERFORMER "Boyz II Men"
INDEX 01 51:05:42
TRACK 13 AUDIO
TITLE "Yesterday"
PERFORMER "Boyz II Men"
INDEX 00 54:26:72
INDEX 01 54:27:60
[свернуть]

Лог проверки качества

AUDIOCHECKER v2.0 beta (build 457) - by Dester -
~~~~~~~~~~~~~~~~~~~~~~~~~~~~~~~~~~
-=== НЕ РЕДАКТИРУЙТЕ ЭТОТ ФАЙЛ! ===-

Путь: ...\1994 - II [MOTD 323]

1 -=- Boyz II Men - II.flac -=- CDDA (100%)

99658356
[свернуть]

Спектр частот

[свернуть]

Скачать Boyz II Men – II



password: sergych
[свернуть]
My opinion of release: 10/10
__________________
TAIFUN.Wings of Soul

Вверх
Похожие темы
Тема Автор Раздел Ответов Последнее сообщение
Альбом Boyz II Men - The Remedy sergych R&B 0 10.08.2013 19:38
Альбом Boyz II Men – Love sergych R&B 0 30.06.2013 10:01
Boyz II Men - Can't Let Her Go sergych R&B 0 06.07.2008 10:32
Boyz II Men - Pass You By sergych R&B 0 06.07.2008 10:32
Boyz II Men sergych R&B [FAQ] 0 06.07.2008 09:24


Метки
1994 , boyz ii men , ii [japan] , rnb

Опции темы

Ваши права в разделе
Вы не можете создавать новые темы
Вы не можете отвечать в темах
Вы не можете прикреплять вложения
Вы не можете редактировать свои сообщения

Быстрый переход



Текущее время: 12:07. Часовой пояс GMT +3.
Powered by vBulletin® Version 3.8.10
Copyright ©2000 - 2018, vBulletin Solutions, Inc. Перевод: zCarot
© 2008 - 2018 Taifun With Song
Яндекс.Метрика