1
[Альбом] Евгений Маргулис - Евгений Маргулис - TAIFUN With Song
TAIFUN With Song
Навигация
Вернуться   TAIFUN With Song > Music (обменник) > Rock > Blues Rock
Расширенный поиск
Blues Rock К концу сороковых годов прошлого столетия в блюзе окончательно обосновалась электрогитара. Трудно сказать, что подтолкнуло многих блюзменов перейти с привычной акустической гитары на электрическую, но блюз с тех пор очень сильно изменился.

А знаете ли Вы, что...
Как выбрали длительность звучания компакт-диска?
«Вместимость компакт-диска была выбрана японскими разработчиками так, чтобы на нём полностью поместилась девятая симфония Бетховена — любимое произведение вице-президента Сони. Хотя итоговая длительность диска в 74 минуты, возникшая в результате разных технических согласований, была всё же на полминуты меньше длительности симфонии.»
 
Опции темы

  #1
Старый 13.06.2016, 19:49
sergych
Координатор
Досье
 
Аватар для sergych
Релиз Евгений Маргулис - Евгений Маргулис


2001(2004) - Евгений Маргулис - Евгений Маргулис




Исполнитель/Artist: Евгений Маргулис
Альбом/Album: Евгений Маргулис
Год/Year: 2001
Жанр/Genre: blues rock, rock
Страна/Country: Россия
Рекорд-лейбл/Record label: Bomba Music
Номер в каталоге/Catalogue #: BoMB 02-05
Формат/Format: Free Lossless Audio Codec (*.flac)
Качество/Quality: Lossless
Тип рипа/RIP Type: image+.cue
Продолжительность/Length: 00:43:30
Источник/Source: Собственный рип
Размер/Size: 347.8 MB

Сканы в комплекте

Треклист

01. Старые песни [0:04:56.22]
02. Телега [0:02:42.62]
03. Пусть она станет небом [0:03:46.51]
04. Я дам тебе знать [0:02:32.09]
05. У зелёных листьев [0:04:18.36]
06. Ветер всё сильней [0:04:50.41]
07. Блюз о вреде пьянства [0:03:04.20]
08. Я рядом с тобой [0:02:26.12]
09. Соль мажор [0:03:48.68]
10. Сколько было звёзд [0:04:03.26]
11. Мой друг лучше всех играет блюз [0:03:59.50]
12. Последняя - 2 [0:03:00.48]
[свернуть]

youtube.com

[свернуть]

Исполнители/Performers

Евгений Маргулис - вокал, бас, гитара
Сергей Гусев - гитара
Михаил Клягин - гитара, добро
Сергей Григорян - ударные
Андрей Старков - клавишные
Михаил Владимиров - губная гармошка
[свернуть]

EAC лог

Exact Audio Copy V1.1 from 23. June 2015

EAC extraction logfile from 14. April 2016, 12:48

Евгений Маргулис / Евгений Маргулис

Used drive : Optiarc DVD RW AD-7260S Adapter: 1 ID: 0

Read mode : Secure
Utilize accurate stream : Yes
Defeat audio cache : Yes
Make use of C2 pointers : No

Read offset correction : 48
Overread into Lead-In and Lead-Out : No
Fill up missing offset samples with silence : Yes
Delete leading and trailing silent blocks : No
Null samples used in CRC calculations : Yes
Used interface : Native Win32 interface for Win NT & 2000

Used output format : User Defined Encoder
Selected bitrate : 896 kBit/s
Quality : High
Add ID3 tag : No
Command line compressor : C:\MMProgram\Exact Audio Copy\FLAC\FLAC.EXE
Additional command line options : -6 -V -T "ARTIST=%artist%" -T "TITLE=%title%" -T "ALBUM=%albumtitle%" -T "DATE=%year%" -T "TRACKNUMBER=%tracknr%" -T "GENRE=%genre%" -T "COMMENT=%comment%" -T "BAND=%albuminterpret%" -T "ALBUMARTIST=%albuminterpret%" -T "COMPOSER=%composer%" %haslyrics%--tag-from-file=LYRICS="%lyricsfile%"%haslyrics% -T "DISCNUMBER=%cdnumber%" -T "TOTALDISCS=%totalcds%" -T "TOTALTRACKS=%numtracks%" %hascover%--picture="%coverfile%"%hascover% %source% -o %dest%


TOC of the extracted CD

Track | Start | Length | Start sector | End sector
---------------------------------------------------------
1 | 0:00.00 | 4:56.22 | 0 | 22221
2 | 4:56.22 | 2:42.62 | 22222 | 34433
3 | 7:39.09 | 3:46.51 | 34434 | 51434
4 | 11:25.60 | 2:32.09 | 51435 | 62843
5 | 13:57.69 | 4:18.36 | 62844 | 82229
6 | 18:16.30 | 4:50.41 | 82230 | 104020
7 | 23:06.71 | 3:04.20 | 104021 | 117840
8 | 26:11.16 | 2:26.12 | 117841 | 128802
9 | 28:37.28 | 3:48.68 | 128803 | 145970
10 | 32:26.21 | 4:03.26 | 145971 | 164221
11 | 36:29.47 | 3:59.50 | 164222 | 182196
12 | 40:29.22 | 3:00.48 | 182197 | 195744


Range status and errors

Selected range

Filename F:\Music\Маргулис Евгений\2004 - Евгений Маргулис [BoMB 02-05]\Евгений Маргулис - Евгений Маргулис.wav

Peak level 100.0 %
Extraction speed 3.8 X
Range quality 100.0 %
Test CRC 9F51BF8A
Copy CRC 9F51BF8A
Copy OK

No errors occurred


AccurateRip summary

Track 1 accurately ripped (confidence 1) [189DA411] (AR v2)
Track 2 accurately ripped (confidence 1) [072553A8] (AR v2)
Track 3 accurately ripped (confidence 1) [6B37935F] (AR v2)
Track 4 accurately ripped (confidence 1) [7B197708] (AR v2)
Track 5 accurately ripped (confidence 1) [21775DF1] (AR v2)
Track 6 accurately ripped (confidence 1) [A8CDE336] (AR v2)
Track 7 accurately ripped (confidence 1) [6A494959] (AR v2)
Track 8 accurately ripped (confidence 1) [AC62656F] (AR v2)
Track 9 accurately ripped (confidence 1) [33CCC9C2] (AR v2)
Track 10 accurately ripped (confidence 1) [0E4E2D68] (AR v2)
Track 11 accurately ripped (confidence 1) [1BA2956A] (AR v2)
Track 12 accurately ripped (confidence 1) [4EBA57D8] (AR v2)

All tracks accurately ripped

End of status report

---- CUETools DB Plugin V2.1.6

[CTDB TOCID: rWhLs_iuOxtjX_._Vw6BKHxANXA-] found
Submit result: rWhLs_iuOxtjX_._Vw6BKHxANXA- has been confirmed
Track | CTDB Status
1 | (1/1) Accurately ripped
2 | (1/1) Accurately ripped
3 | (1/1) Accurately ripped
4 | (1/1) Accurately ripped
5 | (1/1) Accurately ripped
6 | (1/1) Accurately ripped
7 | (1/1) Accurately ripped
8 | (1/1) Accurately ripped
9 | (1/1) Accurately ripped
10 | (1/1) Accurately ripped
11 | (1/1) Accurately ripped
12 | (1/1) Accurately ripped
[свернуть]

Файл CUE

REM GENRE Blues
REM DATE 2001
REM DISCID BE0A310C
REM COMMENT "ExactAudioCopy v1.1"
PERFORMER "Евгений Маргулис"
TITLE "Евгений Маргулис"
FILE "Евгений Маргулис - Евгений Маргулис.flac" WAVE
TRACK 01 AUDIO
TITLE "Старые песни"
PERFORMER "Евгений Маргулис"
INDEX 01 00:00:00
TRACK 02 AUDIO
TITLE "Телега"
PERFORMER "Евгений Маргулис"
INDEX 00 04:54:22
INDEX 01 04:56:22
TRACK 03 AUDIO
TITLE "Пусть она станет небом"
PERFORMER "Евгений Маргулис"
INDEX 00 07:37:09
INDEX 01 07:39:09
TRACK 04 AUDIO
TITLE "Я дам тебе знать"
PERFORMER "Евгений Маргулис"
INDEX 00 11:23:60
INDEX 01 11:25:60
TRACK 05 AUDIO
TITLE "У зелёных листьев"
PERFORMER "Евгений Маргулис"
INDEX 00 13:55:69
INDEX 01 13:57:69
TRACK 06 AUDIO
TITLE "Ветер всё сильней"
PERFORMER "Евгений Маргулис"
INDEX 00 18:14:30
INDEX 01 18:16:30
TRACK 07 AUDIO
TITLE "Блюз о вреде пьянства"
PERFORMER "Евгений Маргулис"
INDEX 00 23:04:71
INDEX 01 23:06:71
TRACK 08 AUDIO
TITLE "Я рядом с тобой"
PERFORMER "Евгений Маргулис"
INDEX 00 26:09:16
INDEX 01 26:11:16
TRACK 09 AUDIO
TITLE "Соль мажор"
PERFORMER "Евгений Маргулис"
INDEX 00 28:35:28
INDEX 01 28:37:28
TRACK 10 AUDIO
TITLE "Сколько было звёзд"
PERFORMER "Евгений Маргулис"
INDEX 00 32:24:21
INDEX 01 32:26:21
TRACK 11 AUDIO
TITLE "Мой друг лучше всех играет блюз"
PERFORMER "Евгений Маргулис"
INDEX 00 36:27:47
INDEX 01 36:29:47
TRACK 12 AUDIO
TITLE "Последняя - 2"
PERFORMER "Евгений Маргулис"
INDEX 00 40:27:22
INDEX 01 40:29:22
[свернуть]

Лог проверки качества

AUDIOCHECKER v2.0 beta (build 457) - by Dester - [Ссылки могут видеть только зарегистрированные и активированные пользователи.]
[Only registered and activated users can see links.]
~~~~~~~~~~~~~~~~~~~~~~~~~~~~~~~~~~
-=== НЕ РЕДАКТИРУЙТЕ ЭТОТ ФАЙЛ! ===-

Путь: ...\2004 - Евгений Маргулис [BoMB 02-05]

1 -=- Евгений Маргулис - Евгений Маргулис.flac -=- CDDA (100%)

193201748
[свернуть]

Спектр частот

[свернуть]

Скачать Евгений Маргулис - Евгений Маргулис

[Ссылки могут видеть только зарегистрированные и активированные пользователи.]
[Only registered and activated users can see links.]

password: sergych
[свернуть]
My opinion of release: 10/10
__________________
TAIFUN.Wings of Soul

Вверх
Похожие темы
Тема Автор Раздел Ответов Последнее сообщение
Альбом Евгений Маргулис - Продолжение следует sergych Blues Rock 0 10.05.2015 23:30
Релиз Евгений Маргулис - Маргулис sergych Blues Rock 0 08.05.2013 08:38
Сборник Евгений Маргулис - Best... sergych Blues Rock 0 22.04.2013 22:18
Релиз Евдокимов Евгений - Часики PUPOKIN Шансон 0 11.02.2011 11:01


Метки
2001 , blues rock , rock , евгений маргулис

Опции темы

Ваши права в разделе
Вы не можете создавать новые темы
Вы не можете отвечать в темах
Вы не можете прикреплять вложения
Вы не можете редактировать свои сообщения

Быстрый переход



Текущее время: 04:39. Часовой пояс GMT +3.
Powered by vBulletin® Version 3.8.10
Copyright ©2000 - 2018, vBulletin Solutions, Inc. Перевод: zCarot
© 2008 - 2018 Taifun With Song
Яндекс.Метрика